X Zone 2020 x264 720p HD Hindi GOPI SAHI

  • Category Movies
  • Type Bollywood
  • Language Hindi
  • Total size 699.1 MB
  • Uploaded By PENDUDESI
  • Downloads 33054
  • Last checked 3 weeks ago
  • Date uploaded 1 month ago
  • Seeders 162
  • Leechers 11

Infohash : BF1D44E320B8B2FE4FC36DF54D8D5B031294B6C6


https://www.jattrules.com/



+18 X Zone 2020 x264 720p HD Hindi GOPI SAHI


Format : Matroska

Format version : Version 4

File size : 699 MiB

Duration : 1 h 37 min

Overall bit rate : 997 kb/s

Movie name : X Zone 2020 GOPI SAHI

Encoded date : UTC 2020-09-25 16:05:13


Video

ID : 1

Format : AVC

Format/Info : Advanced Video Codec

Format profile : [email protected]

Format settings : CABAC / 5 Ref Frames

Format settings, CABAC : Yes

Format settings, Reference fra : 5 frames

Codec ID : V_MPEG4/ISO/AVC

Duration : 1 h 37 min

Bit rate : 899 kb/s

Width : 1 280 pixels

Height : 544 pixels

Display aspect ratio : 2.35:1

Frame rate mode : Constant

Frame rate : 25.000 FPS

Color space : YUV

Chroma subsampling : 4:2:0

Bit depth : 8 bits

Scan type : Progressive

Bits/(Pixel*Frame) : 0.052

Stream size : 630 MiB (90%)

Title : GOPI SAHI

Writing library : x264 core 157 r2935 545de2f


Audio

ID : 2

Format : AAC LC

Format/Info : Advanced Audio Codec Low Complexity

Codec ID : A_AAC-2

Duration : 1 h 37 min

Bit rate : 96.0 kb/s

Channel(s) : 2 channels

Channel layout : L R

Sampling rate : 48.0 kHz

Frame rate : 46.875 FPS (1024 SPF)

Compression mode : Lossy

Delay relative to video : -101 ms

Stream size : 67.4 MiB (10%)

Title : GOPI SAHI

Language : Hindi

Default : Yes

Forced : No






Files:

  • +18 X Zone 2020 x264 720p HD Hindi GOPI SAHI.mkv (699.1 MB)

Comments

Code:

  • udp://tracker.coppersurfer.tk:6969/announce
  • udp://tracker.opentrackr.org:1337/announce
  • udp://tracker.leechers-paradise.org:6969/announce
  • udp://p4p.arenabg.com:1337/announce
  • udp://exodus.desync.com:6969/announce
  • udp://open.stealth.si:80/announce
  • udp://tracker.sbsub.com:2710/announce
  • udp://tracker.cyberia.is:6969/announce
  • udp://tracker.tiny-vps.com:6969/announce
  • udp://retracker.lanta-net.ru:2710/announce
  • udp://tracker.torrent.eu.org:451/announce
  • udp://tracker.moeking.me:6969/announce
  • udp://tracker3.itzmx.com:6961/announce
  • http://tracker1.itzmx.com:8080/announce
  • http://tracker.nyap2p.com:8080/announce