Agave - The Spirit of a Nation (2018)(DOCU)(1080p AMZN-WEBRip x26...

  • Category Documentaries
  • Type Documentary
  • Language English
  • Total size 1.2 GB
  • Uploaded By RT701
  • Downloads 249
  • Last checked 1 week ago
  • Date uploaded 3 weeks ago
  • Seeders 2
  • Leechers 3

Infohash : FE5561191D0D55AACCA77A1C4AF19C51E6FAAF7E

Agave - The Spirit of a Nation (2018)(DOCU) TMDb

a cTurtle Cømpact release -- x265 10bit, crf22, med preset, further adjustments, edge filters applied, 2 audio tracks

**Notes: Spanish w/ subtitles.




Code:

Source: Agave.The.Spirit.of.a.Nation.2018.1080p.AMZN.WEB-DL.DDP2.0.H.264-TEPES.mkv (4.30 GB)


Quote:


Format : Matroska
Format version : Version 4
File size : 1.19 GiB
Duration : 1 h 19 min
Overall bit rate : 2 144 kb/s
Movie name : Agave - The Spirit of a Nation (2018)
Encoded date : UTC 2020-10-04 21:17:02
Writing application : mkvmerge v50.0.0 ('Awakenings') 64-bit
Writing library : libebml v1.4.0 + libmatroska v1.6.2

Video
ID : 1
Format : HEVC
Format/Info : High Efficiency Video Coding
Format profile : Main [email protected]@Main
Codec ID : V_MPEGH/ISO/HEVC
Duration : 1 h 19 min
Bit rate : 1 687 kb/s
Width : 1 920 pixels
Height : 960 pixels
Display aspect ratio : 2.000
Frame rate mode : Constant
Frame rate : 23.976 (24000/1001) FPS
Color space : YUV
Chroma subsampling : 4:2:0
Bit depth : 10 bits
Bits/(Pixel*Frame) : 0.038
Stream size : 955 MiB (79%)
Title : crf22 HEVC (from 7.5Mbps AVC original)
Writing library : x265 3.2.1+1-b5c86a64bbbe:[Mac OS X][clang 11.0.3][64 bit] 10bit
Encoding settings : cpuid=1111039 / frame-threads=3 / wpp / no-pmode / no-pme / no-psnr / no-ssim / log-level=2 / input-csp=1 / input-res=1920x960 / interlace=0 / total-frames=0 / level-idc=0 / high-tier=1 / uhd-bd=0 / ref=3 / no-allow-non-conformance / no-repeat-headers / annexb / no-aud / no-hrd / info / hash=0 / no-temporal-layers / open-gop / min-keyint=24 / keyint=240 / gop-lookahead=0 / bframes=8 / b-adapt=2 / b-pyramid / bframe-bias=0 / rc-lookahead=80 / lookahead-slices=6 / scenecut=40 / radl=0 / no-splice / no-intra-refresh / ctu=64 / min-cu-size=8 / no-rect / no-amp / max-tu-size=32 / tu-inter-depth=1 / tu-intra-depth=1 / limit-tu=0 / rdoq-level=0 / dynamic-rd=0.00 / no-ssim-rd / signhide / no-tskip / nr-intra=0 / nr-inter=0 / no-constrained-intra / no-strong-intra-smoothing / max-merge=3 / limit-refs=1 / no-limit-modes / me=1 / subme=5 / merange=57 / temporal-mvp / no-hme / weightp / no-weightb / no-analyze-src-pics / deblock=0:0 / sao / no-sao-non-deblock / rd=3 / selective-sao=4 / early-skip / rskip / no-fast-intra / no-tskip-fast / no-cu-lossless / b-intra / no-splitrd-skip / rdpenalty=0 / psy-rd=1.30 / psy-rdoq=0.00 / no-rd-refine / no-lossless / cbqpoffs=0 / crqpoffs=0 / rc=crf / crf=22.0 / qcomp=0.60 / qpstep=4 / stats-write=0 / stats-read=0 / ipratio=1.40 / pbratio=1.30 / aq-mode=4 / aq-strength=1.10 / cutree / zone-count=0 / no-strict-cbr / qg-size=32 / no-rc-grain / qpmax=69 / qpmin=0 / no-const-vbv / sar=1 / overscan=0 / videoformat=5 / range=0 / colorprim=1 / transfer=1 / colormatrix=1 / chromaloc=0 / display-window=0 / cll=0,0 / min-luma=0 / max-luma=1023 / log2-max-poc-lsb=8 / vui-timing-info / vui-hrd-info / slices=1 / no-opt-qp-pps / no-opt-ref-list-length-pps / no-multi-pass-opt-rps / scenecut-bias=0.05 / no-opt-cu-delta-qp / no-aq-motion / no-hdr / no-hdr-opt / no-dhdr10-opt / no-idr-recovery-sei / analysis-reuse-level=5 / scale-factor=0 / refine-intra=0 / refine-inter=0 / refine-mv=1 / refine-ctu-distortion=0 / no-limit-sao / ctu-info=0 / no-lowpass-dct / refine-analysis-type=0 / copy-pic=1 / max-ausize-factor=1.0 / no-dynamic-refine / no-single-sei / no-hevc-aq / no-svt / no-field / qp-adaptation-range=1.00
Language : English
Default : Yes
Forced : No
Color range : Limited
Color primaries : BT.709
Transfer characteristics : BT.709
Matrix coefficients : BT.709

Audio #1
ID : 2
Format : E-AC-3
Format/Info : Enhanced AC-3
Commercial name : Dolby Digital Plus
Codec ID : A_EAC3
Duration : 1 h 19 min
Bit rate mode : Constant
Bit rate : 224 kb/s
Channel(s) : 2 channels
Channel layout : L R
Sampling rate : 48.0 kHz
Frame rate : 31.250 FPS (1536 SPF)
Compression mode : Lossy
Stream size : 127 MiB (10%)
Title : E-AC3 2.0 / 224kbps / original
Language : Spanish
Service kind : Complete Main
Default : No
Forced : No

Audio #2
ID : 3
Format : AAC LC
Format/Info : Advanced Audio Codec Low Complexity
Codec ID : A_AAC-2
Duration : 1 h 19 min
Bit rate : 230 kb/s
Channel(s) : 2 channels
Channel layout : L R
Sampling rate : 48.0 kHz
Frame rate : 46.875 FPS (1024 SPF)
Compression mode : Lossy
Delay relative to video : -44 ms
Stream size : 130 MiB (11%)
Title : AAC 2.0 / 224kbps (from E-AC3 2.0 / 224kbps / original)
Language : Spanish
Default : No
Forced : No

Text #1
ID : 4
Format : UTF-8
Codec ID : S_TEXT/UTF8
Codec ID/Info : UTF-8 Plain Text
Duration : 1 h 15 min
Bit rate : 55 b/s
Count of elements : 657
Stream size : 30.8 KiB (0%)
Title : English-SRT
Language : English
Default : No
Forced : No

Text #2
ID : 5
Format : ASS
Codec ID : S_TEXT/ASS
Codec ID/Info : Advanced Sub Station Alpha
Duration : 1 h 15 min
Bit rate : 81 b/s
Count of elements : 657
Compression mode : Lossless
Stream size : 44.8 KiB (0%)
Title : English-SSA
Language : English
Default : No
Forced : No


Files:

  • Agave - The Spirit of a Nation (2018)(DOCU)(1080p AMZN-WEBRip x265 HEVC crf22-M LsLt E-AC3-AAC 2.0 SPA)[cTurtle-Cømpact].mkv (1.2 GB)

Comments

Code:

  • http://share.camoe.cn:8080/announce
  • udp://tracker.torrent.eu.org:451/announce
  • http://t.nyaatracker.com:80/announce
  • udp://tracker.doko.moe:6969/announce
  • http://asnet.pw:2710/announce
  • udp://thetracker.org:80/announce
  • http://tracker.tfile.co:80/announce
  • http://pt.lax.mx:80/announce
  • udp://santost12.xyz:6969/announce
  • https://tracker.bt-hash.com:443/announce
  • udp://bt.xxx-tracker.com:2710/announce
  • udp://tracker.vanitycore.co:6969/announce
  • udp://zephir.monocul.us:6969/announce
  • http://grifon.info:80/announce
  • http://retracker.spark-rostov.ru:80/announce
  • http://tr.kxmp.cf:80/announce
  • http://tracker.city9x.com:2710/announce
  • udp://bt.aoeex.com:8000/announce
  • http://tracker.tfile.me:80/announce
  • udp://tracker.tiny-vps.com:6969/announce
  • http://retracker.telecom.by:80/announce
  • http://tracker.electro-torrent.pl:80/announce
  • udp://tracker.tvunderground.org.ru:3218/announce
  • udp://tracker.halfchub.club:6969/announce
  • udp://retracker.nts.su:2710/announce
  • udp://wambo.club:1337/announce
  • udp://tracker.dutchtracking.com:6969/announce
  • udp://tc.animereactor.ru:8082/announce
  • udp://tracker.justseed.it:1337/announce
  • udp://tracker.leechers-paradise.org:6969/announce
  • udp://tracker.opentrackr.org:1337/announce
  • https://open.kickasstracker.com:443/announce
  • udp://tracker.coppersurfer.tk:6969/announce
  • udp://open.stealth.si:80/announce
  • http://retracker.mgts.by:80/announce
  • http://retracker.bashtel.ru:80/announce
  • udp://inferno.demonoid.pw:3418/announce
  • udp://tracker.cypherpunks.ru:6969/announce
  • http://tracker.calculate.ru:6969/announce
  • udp://tracker.sktorrent.net:6969/announce
  • udp://tracker.grepler.com:6969/announce
  • udp://tracker.flashtorrents.org:6969/announce
  • udp://tracker.yoshi210.com:6969/announce
  • udp://tracker.tiny-vps.com:6969/announce
  • udp://tracker.internetwarriors.net:1337/announce
  • udp://mgtracker.org:2710/announce
  • http://tracker.yoshi210.com:6969/announce
  • http://tracker.tiny-vps.com:6969/announce
  • udp://tracker.filetracker.pl:8089/announce
  • udp://tracker.ex.ua:80/announce
  • http://mgtracker.org:2710/announce
  • udp://tracker.aletorrenty.pl:2710/announce
  • http://tracker.filetracker.pl:8089/announce
  • http://tracker.ex.ua/announce
  • http://mgtracker.org:6969/announce
  • http://retracker.krs-ix.ru:80/announce
  • udp://tracker2.indowebster.com:6969/announce
  • http://thetracker.org:80/announce
  • http://tracker.bittor.pw:1337/announce
  • udp://tracker.kicks-ass.net:80/announce
  • udp://tracker.aletorrenty.pl:2710/announce
  • http://tracker.aletorrenty.pl:2710/announce
  • http://tracker.bittorrent.am/announce
  • udp://tracker.kicks-ass.net:80/announce
  • http://tracker.kicks-ass.net/announce
  • http://tracker.baravik.org:6970/announce
  • http://tracker.dutchtracking.com/announce
  • http://tracker.dutchtracking.com:80/announce
  • udp://tracker4.piratux.com:6969/announce
  • http://tracker.internetwarriors.net:1337/announce
  • udp://tracker.skyts.net:6969/announce
  • http://tracker.dutchtracking.nl/announce
  • http://tracker2.itzmx.com:6961/announce
  • http://tracker2.wasabii.com.tw:6969/announce
  • udp://tracker.sktorrent.net:6969/announce
  • http://www.wareztorrent.com:80/announce
  • udp://bt.xxx-tracker.com:2710/announce
  • udp://tracker.eddie4.nl:6969/announce
  • udp://tracker.grepler.com:6969/announce
  • udp://tracker.mg64.net:2710/announce
  • udp://tracker.coppersurfer.tk:6969/announce
  • http://tracker.opentrackr.org:1337/announce
  • http://tracker.dutchtracking.nl:80/announce
  • http://tracker.edoardocolombo.eu:6969/announce
  • http://tracker.ex.ua:80/announce
  • http://tracker.kicks-ass.net:80/announce
  • http://tracker.mg64.net:6881/announce
  • udp://tracker.flashtorrents.org:6969/announce
  • http://tracker.tfile.me/announce
  • http://tracker1.wasabii.com.tw:6969/announce
  • udp://tracker.bittor.pw:1337/announce
  • http://tracker.tvunderground.org.ru:3218/announce
  • http://tracker.grepler.com:6969/announce
  • udp://tracker.bittor.pw:1337/announce
  • http://tracker.flashtorrents.org:6969/announce
  • http://retracker.gorcomnet.ru/announce
  • udp://tracker.sktorrent.net:6969/announce
  • udp://tracker.sktorrent.net:6969
  • udp://public.popcorn-tracker.org:6969/announce
  • udp://tracker.ilibr.org:80/announce
  • udp://tracker.kuroy.me:5944/announce
  • udp://tracker.mg64.net:6969/announce
  • udp://tracker.cyberia.is:6969/announce
  • http://tracker.devil-torrents.pl:80/announce
  • udp://tracker2.christianbro.pw:6969/announce
  • udp://retracker.lanta-net.ru:2710/announce
  • udp://tracker.internetwarriors.net:1337/announce
  • udp://ulfbrueggemann.no-ip.org:6969/announce
  • http://torrentsmd.eu:8080/announce
  • udp://peerfect.org:6969/announce
  • udp://tracker.swateam.org.uk:2710/announce
  • http://ns349743.ip-91-121-106.eu:80/announce
  • http://torrentsmd.me:8080/announce
  • http://agusiq-torrents.pl:6969/announce
  • http://fxtt.ru:80/announce
  • udp://tracker.vanitycore.co:6969/announce
  • udp://explodie.org:6969