Whose Vote Counts, Explained (2020) Season 1 S01 (DOCU)(1080p NF-...

  • Category Documentaries
  • Type Documentary
  • Language English
  • Total size 2.4 GB
  • Uploaded By RT701
  • Downloads 246
  • Last checked 1 week ago
  • Date uploaded 3 weeks ago
  • Seeders 5
  • Leechers 4

Infohash : 821A346E229859AC1AF00F906BB15BF615AC9793

Whose Vote Counts, Explained (2020) Season 1 S01 (DOCU) TVDb

a cTurtle Cømpact release -- x265 10bit, crf22, med preset, further adjustments, edge filters applied, 2 audio tracks, multi subs





S01E01  The Right to Vote
S01E02  Can You Buy an Election?
S01E03  Whose Vote Counts




Code:

Source: Whose.Vote.Counts.Explained.S01.1080p.NF.WEBRip.DDP5.1.x264-NTb[rartv] (3.85 GB)


Quote:


SINGLE EPISODE SPECS
Format                                   : Matroska
Format version                           : Version 4
File size                                : 750 MiB
Duration                                 : 25 min 19 s
Overall bit rate                         : 4 138 kb/s
Movie name                               : The Right to Vote
Encoded date                             : UTC 2020-10-04 21:42:43
Writing application                      : mkvmerge v50.0.0 ('Awakenings') 64-bit
Writing library                          : libebml v1.4.0 + libmatroska v1.6.2

Video
ID                                       : 1
Format                                   : HEVC
Format/Info                              : High Efficiency Video Coding
Format profile                           : Main [email protected]@Main
Codec ID                                 : V_MPEGH/ISO/HEVC
Duration                                 : 25 min 19 s
Bit rate                                 : 3 166 kb/s
Width                                    : 1 920 pixels
Height                                   : 1 080 pixels
Display aspect ratio                     : 16:9
Frame rate mode                          : Constant
Frame rate                               : 23.976 (24000/1001) FPS
Color space                              : YUV
Chroma subsampling                       : 4:2:0
Bit depth                                : 10 bits
Bits/(Pixel*Frame)                       : 0.064
Stream size                              : 574 MiB (77%)
Title                                    : crf22 HEVC (from 6Mbps AVC original)
Writing library                          : x265 3.2.1+1-b5c86a64bbbe:[Mac OS X][clang 11.0.3][64 bit] 10bit
Encoding settings                        : cpuid=1111039 / frame-threads=3 / wpp / no-pmode / no-pme / no-psnr / no-ssim / log-level=2 / input-csp=1 / input-res=1920x1080 / interlace=0 / total-frames=0 / level-idc=0 / high-tier=1 / uhd-bd=0 / ref=3 / no-allow-non-conformance / no-repeat-headers / annexb / no-aud / no-hrd / info / hash=0 / no-temporal-layers / open-gop / min-keyint=24 / keyint=240 / gop-lookahead=0 / bframes=8 / b-adapt=2 / b-pyramid / bframe-bias=0 / rc-lookahead=80 / lookahead-slices=6 / scenecut=40 / radl=0 / no-splice / no-intra-refresh / ctu=64 / min-cu-size=8 / no-rect / no-amp / max-tu-size=32 / tu-inter-depth=1 / tu-intra-depth=1 / limit-tu=0 / rdoq-level=0 / dynamic-rd=0.00 / no-ssim-rd / signhide / no-tskip / nr-intra=0 / nr-inter=0 / no-constrained-intra / no-strong-intra-smoothing / max-merge=3 / limit-refs=1 / no-limit-modes / me=1 / subme=5 / merange=57 / temporal-mvp / no-hme / weightp / no-weightb / no-analyze-src-pics / deblock=0:0 / sao / no-sao-non-deblock / rd=3 / selective-sao=4 / early-skip / rskip / no-fast-intra / no-tskip-fast / no-cu-lossless / b-intra / no-splitrd-skip / rdpenalty=0 / psy-rd=1.30 / psy-rdoq=0.00 / no-rd-refine / no-lossless / cbqpoffs=0 / crqpoffs=0 / rc=crf / crf=22.0 / qcomp=0.60 / qpstep=4 / stats-write=0 / stats-read=0 / ipratio=1.40 / pbratio=1.30 / aq-mode=4 / aq-strength=1.10 / cutree / zone-count=0 / no-strict-cbr / qg-size=32 / no-rc-grain / qpmax=69 / qpmin=0 / no-const-vbv / sar=1 / overscan=0 / videoformat=5 / range=0 / colorprim=1 / transfer=1 / colormatrix=1 / chromaloc=0 / display-window=0 / cll=0,0 / min-luma=0 / max-luma=1023 / log2-max-poc-lsb=8 / vui-timing-info / vui-hrd-info / slices=1 / no-opt-qp-pps / no-opt-ref-list-length-pps / no-multi-pass-opt-rps / scenecut-bias=0.05 / no-opt-cu-delta-qp / no-aq-motion / no-hdr / no-hdr-opt / no-dhdr10-opt / no-idr-recovery-sei / analysis-reuse-level=5 / scale-factor=0 / refine-intra=0 / refine-inter=0 / refine-mv=1 / refine-ctu-distortion=0 / no-limit-sao / ctu-info=0 / no-lowpass-dct / refine-analysis-type=0 / copy-pic=1 / max-ausize-factor=1.0 / no-dynamic-refine / no-single-sei / no-hevc-aq / no-svt / no-field / qp-adaptation-range=1.00
Language                                 : English
Default                                  : Yes
Forced                                   : No
Color range                              : Limited
Color primaries                          : BT.709
Transfer characteristics                 : BT.709
Matrix coefficients                      : BT.709

Audio #1
ID                                       : 2
Format                                   : E-AC-3
Format/Info                              : Enhanced AC-3
Commercial name                          : Dolby Digital Plus
Codec ID                                 : A_EAC3
Duration                                 : 25 min 19 s
Bit rate mode                            : Constant
Bit rate                                 : 640 kb/s
Channel(s)                               : 6 channels
Channel layout                           : L R C LFE Ls Rs
Sampling rate                            : 48.0 kHz
Frame rate                               : 31.250 FPS (1536 SPF)
Compression mode                         : Lossy
Stream size                              : 116 MiB (15%)
Title                                    : E-AC3 5.1 / 640kbps / original
Language                                 : English
Service kind                             : Complete Main
Default                                  : No
Forced                                   : No

Audio #2
ID                                       : 3
Format                                   : AAC LC
Format/Info                              : Advanced Audio Codec Low Complexity
Codec ID                                 : A_AAC-2
Duration                                 : 25 min 19 s
Bit rate                                 : 323 kb/s
Channel(s)                               : 6 channels
Channel layout                           : C L R Ls Rs LFE
Sampling rate                            : 48.0 kHz
Frame rate                               : 46.875 FPS (1024 SPF)
Compression mode                         : Lossy
Delay relative to video                  : -44 ms
Stream size                              : 58.5 MiB (8%)
Title                                    : AAC 5.1 / 320kbps (from E-AC3 5.1 / 640kbps / original)
Language                                 : English
Default                                  : No
Forced                                   : No

Text #1
ID                                       : 4
Format                                   : UTF-8
Codec ID                                 : S_TEXT/UTF8
Codec ID/Info                            : UTF-8 Plain Text
Duration                                 : 24 min 10 s
Bit rate                                 : 134 b/s
Count of elements                        : 451
Stream size                              : 23.8 KiB (0%)
Title                                    : SDH
Language                                 : English
Default                                  : No
Forced                                   : No

Text #2
ID                                       : 5
Format                                   : UTF-8
Codec ID                                 : S_TEXT/UTF8
Codec ID/Info                            : UTF-8 Plain Text
Duration                                 : 24 min 35 s
Bit rate                                 : 191 b/s
Count of elements                        : 439
Stream size                              : 34.6 KiB (0%)
Language                                 : Arabic
Default                                  : No
Forced                                   : No

Text #3
ID                                       : 6
Format                                   : UTF-8
Codec ID                                 : S_TEXT/UTF8
Codec ID/Info                            : UTF-8 Plain Text
Duration                                 : 24 min 35 s
Bit rate                                 : 122 b/s
Count of elements                        : 409
Stream size                              : 22.0 KiB (0%)
Language                                 : Czech
Default                                  : No
Forced                                   : No

Text #4
ID                                       : 7
Format                                   : UTF-8
Codec ID                                 : S_TEXT/UTF8
Codec ID/Info                            : UTF-8 Plain Text
Duration                                 : 24 min 35 s
Bit rate                                 : 119 b/s
Count of elements                        : 383
Stream size                              : 21.5 KiB (0%)
Language                                 : Danish
Default                                  : No
Forced                                   : No

Text #5
ID                                       : 8
Format                                   : UTF-8
Codec ID                                 : S_TEXT/UTF8
Codec ID/Info                            : UTF-8 Plain Text
Duration                                 : 24 min 36 s
Bit rate                                 : 131 b/s
Count of elements                        : 440
Stream size                              : 23.6 KiB (0%)
Language                                 : German
Default                                  : No
Forced                                   : No

Text #6
ID                                       : 9
Format                                   : UTF-8
Codec ID                                 : S_TEXT/UTF8
Codec ID/Info                            : UTF-8 Plain Text
Duration                                 : 24 min 36 s
Bit rate                                 : 215 b/s
Count of elements                        : 441
Stream size                              : 38.9 KiB (0%)
Language                                 : Greek
Default                                  : No
Forced                                   : No

Text #7
ID                                       : 10
Format                                   : UTF-8
Codec ID                                 : S_TEXT/UTF8
Codec ID/Info                            : UTF-8 Plain Text
Duration                                 : 24 min 36 s
Bit rate                                 : 119 b/s
Count of elements                        : 418
Stream size                              : 21.5 KiB (0%)
Title                                    : Latin American
Language                                 : Spanish
Default                                  : No
Forced                                   : No

Text #8
ID                                       : 11
Format                                   : UTF-8
Codec ID                                 : S_TEXT/UTF8
Codec ID/Info                            : UTF-8 Plain Text
Duration                                 : 24 min 35 s
Bit rate                                 : 119 b/s
Count of elements                        : 428
Stream size                              : 21.5 KiB (0%)
Title                                    : European
Language                                 : Spanish
Default                                  : No
Forced                                   : No

Text #9
ID                                       : 12
Format                                   : UTF-8
Codec ID                                 : S_TEXT/UTF8
Codec ID/Info                            : UTF-8 Plain Text
Duration                                 : 24 min 35 s
Bit rate                                 : 115 b/s
Count of elements                        : 395
Stream size                              : 20.8 KiB (0%)
Language                                 : Finnish
Default                                  : No
Forced                                   : No

Text #10
ID                                       : 13
Format                                   : UTF-8
Codec ID                                 : S_TEXT/UTF8
Codec ID/Info                            : UTF-8 Plain Text
Duration                                 : 24 min 35 s
Bit rate                                 : 121 b/s
Count of elements                        : 426
Stream size                              : 21.9 KiB (0%)
Language                                 : French
Default                                  : No
Forced                                   : No

Text #11
ID                                       : 14
Format                                   : UTF-8
Codec ID                                 : S_TEXT/UTF8
Codec ID/Info                            : UTF-8 Plain Text
Duration                                 : 24 min 35 s
Bit rate                                 : 177 b/s
Count of elements                        : 470
Stream size                              : 31.9 KiB (0%)
Language                                 : Hebrew
Default                                  : No
Forced                                   : No

Text #12
ID                                       : 15
Format                                   : UTF-8
Codec ID                                 : S_TEXT/UTF8
Codec ID/Info                            : UTF-8 Plain Text
Duration                                 : 24 min 35 s
Bit rate                                 : 116 b/s
Count of elements                        : 422
Stream size                              : 21.0 KiB (0%)
Language                                 : Croatian
Default                                  : No
Forced                                   : No

Text #13
ID                                       : 16
Format                                   : UTF-8
Codec ID                                 : S_TEXT/UTF8
Codec ID/Info                            : UTF-8 Plain Text
Duration                                 : 24 min 35 s
Bit rate                                 : 137 b/s
Count of elements                        : 434
Stream size                              : 24.7 KiB (0%)
Language                                 : Hungarian
Default                                  : No
Forced                                   : No

Text #14
ID                                       : 17
Format                                   : UTF-8
Codec ID                                 : S_TEXT/UTF8
Codec ID/Info                            : UTF-8 Plain Text
Duration                                 : 24 min 35 s
Bit rate                                 : 117 b/s
Count of elements                        : 421
Stream size                              : 21.2 KiB (0%)
Language                                 : Indonesian
Default                                  : No
Forced                                   : No

Text #15
ID                                       : 18
Format                                   : UTF-8
Codec ID                                 : S_TEXT/UTF8
Codec ID/Info                            : UTF-8 Plain Text
Duration                                 : 24 min 35 s
Bit rate                                 : 127 b/s
Count of elements                        : 449
Stream size                              : 23.0 KiB (0%)
Language                                 : Italian
Default                                  : No
Forced                                   : No

Text #16
ID                                       : 19
Format                                   : UTF-8
Codec ID                                 : S_TEXT/UTF8
Codec ID/Info                            : UTF-8 Plain Text
Duration                                 : 24 min 35 s
Bit rate                                 : 140 b/s
Count of elements                        : 555
Stream size                              : 25.2 KiB (0%)
Language                                 : Japanese
Default                                  : No
Forced                                   : No

Text #17
ID                                       : 20
Format                                   : UTF-8
Codec ID                                 : S_TEXT/UTF8
Codec ID/Info                            : UTF-8 Plain Text
Duration                                 : 24 min 35 s
Bit rate                                 : 151 b/s
Count of elements                        : 443
Stream size                              : 27.3 KiB (0%)
Language                                 : Korean
Default                                  : No
Forced                                   : No

Text #18
ID                                       : 21
Format                                   : UTF-8
Codec ID                                 : S_TEXT/UTF8
Codec ID/Info                            : UTF-8 Plain Text
Duration                                 : 24 min 35 s
Bit rate                                 : 118 b/s
Count of elements                        : 433
Stream size                              : 21.3 KiB (0%)
Language                                 : Malay
Default                                  : No
Forced                                   : No

Text #19
ID                                       : 22
Format                                   : UTF-8
Codec ID                                 : S_TEXT/UTF8
Codec ID/Info                            : UTF-8 Plain Text
Duration                                 : 24 min 35 s
Bit rate                                 : 109 b/s
Count of elements                        : 391
Stream size                              : 19.7 KiB (0%)
Language                                 : Norwegian Bokmal
Default                                  : No
Forced                                   : No

Text #20
ID                                       : 23
Format                                   : UTF-8
Codec ID                                 : S_TEXT/UTF8
Codec ID/Info                            : UTF-8 Plain Text
Duration                                 : 24 min 36 s
Bit rate                                 : 100 b/s
Count of elements                        : 380
Stream size                              : 18.2 KiB (0%)
Language                                 : Dutch
Default                                  : No
Forced                                   : No

Text #21
ID                                       : 24
Format                                   : UTF-8
Codec ID                                 : S_TEXT/UTF8
Codec ID/Info                            : UTF-8 Plain Text
Duration                                 : 24 min 35 s
Bit rate                                 : 124 b/s
Count of elements                        : 422
Stream size                              : 22.4 KiB (0%)
Language                                 : Polish
Default                                  : No
Forced                                   : No

Text #22
ID                                       : 25
Format                                   : UTF-8
Codec ID                                 : S_TEXT/UTF8
Codec ID/Info                            : UTF-8 Plain Text
Duration                                 : 24 min 35 s
Bit rate                                 : 131 b/s
Count of elements                        : 465
Stream size                              : 23.6 KiB (0%)
Title                                    : European
Language                                 : Portuguese
Default                                  : No
Forced                                   : No

Text #23
ID                                       : 26
Format                                   : UTF-8
Codec ID                                 : S_TEXT/UTF8
Codec ID/Info                            : UTF-8 Plain Text
Duration                                 : 24 min 35 s
Bit rate                                 : 119 b/s
Count of elements                        : 437
Stream size                              : 21.5 KiB (0%)
Title                                    : Brazilian
Language                                 : Portuguese
Default                                  : No
Forced                                   : No

Text #24
ID                                       : 27
Format                                   : UTF-8
Codec ID                                 : S_TEXT/UTF8
Codec ID/Info                            : UTF-8 Plain Text
Duration                                 : 24 min 35 s
Bit rate                                 : 138 b/s
Count of elements                        : 422
Stream size                              : 24.9 KiB (0%)
Language                                 : Romanian
Default                                  : No
Forced                                   : No

Text #25
ID                                       : 28
Format                                   : UTF-8
Codec ID                                 : S_TEXT/UTF8
Codec ID/Info                            : UTF-8 Plain Text
Duration                                 : 24 min 35 s
Bit rate                                 : 201 b/s
Count of elements                        : 439
Stream size                              : 36.2 KiB (0%)
Language                                 : Russian
Default                                  : No
Forced                                   : No

Text #26
ID                                       : 29
Format                                   : UTF-8
Codec ID                                 : S_TEXT/UTF8
Codec ID/Info                            : UTF-8 Plain Text
Duration                                 : 24 min 35 s
Bit rate                                 : 120 b/s
Count of elements                        : 372
Stream size                              : 21.7 KiB (0%)
Language                                 : Swedish
Default                                  : No
Forced                                   : No

Text #27
ID                                       : 30
Format                                   : UTF-8
Codec ID                                 : S_TEXT/UTF8
Codec ID/Info                            : UTF-8 Plain Text
Duration                                 : 24 min 8 s
Bit rate                                 : 305 b/s
Count of elements                        : 443
Stream size                              : 54.0 KiB (0%)
Language                                 : Thai
Default                                  : No
Forced                                   : No

Text #28
ID                                       : 31
Format                                   : UTF-8
Codec ID                                 : S_TEXT/UTF8
Codec ID/Info                            : UTF-8 Plain Text
Duration                                 : 24 min 37 s
Bit rate                                 : 113 b/s
Count of elements                        : 404
Stream size                              : 20.5 KiB (0%)
Language                                 : Turkish
Default                                  : No
Forced                                   : No

Text #29
ID                                       : 32
Format                                   : UTF-8
Codec ID                                 : S_TEXT/UTF8
Codec ID/Info                            : UTF-8 Plain Text
Duration                                 : 24 min 35 s
Bit rate                                 : 167 b/s
Count of elements                        : 425
Stream size                              : 30.2 KiB (0%)
Language                                 : Vietnamese
Default                                  : No
Forced                                   : No

Text #30
ID                                       : 33
Format                                   : UTF-8
Codec ID                                 : S_TEXT/UTF8
Codec ID/Info                            : UTF-8 Plain Text
Duration                                 : 24 min 35 s
Bit rate                                 : 103 b/s
Count of elements                        : 439
Stream size                              : 18.6 KiB (0%)
Title                                    : Simplified
Language                                 : Chinese
Default                                  : No
Forced                                   : No

Text #31
ID                                       : 34
Format                                   : UTF-8
Codec ID                                 : S_TEXT/UTF8
Codec ID/Info                            : UTF-8 Plain Text
Duration                                 : 24 min 35 s
Bit rate                                 : 109 b/s
Count of elements                        : 457
Stream size                              : 19.7 KiB (0%)
Title                                    : Traditional
Language                                 : Chinese
Default                                  : No
Forced                                   : No


Files:

Whose Vote Counts, Explained (2020) Season 1
  • Whose Vote Counts, Explained (2020) S01E01 The Right to Vote (DOCU)(1080p NF-WEBRip x265 HEVC crf22-M LsLt E-AC3-AAC 5.1)[cTurtle-Cømpact].mkv (749.9 MB)
  • Whose Vote Counts, Explained (2020) S01E02 Can You Buy an Election? (DOCU)(1080p NF-WEBRip x265 HEVC crf22-M LsLt E-AC3-AAC 5.1)[cTurtle-Cømpact].mkv (939.1 MB)
  • Whose Vote Counts, Explained (2020) S01E03 Whose Vote Counts (DOCU)(1080p NF-WEBRip x265 HEVC crf22-M LsLt E-AC3-AAC 5.1)[cTurtle-Cømpact].mkv (803.5 MB)

Comments

Code:

  • http://share.camoe.cn:8080/announce
  • udp://tracker.torrent.eu.org:451/announce
  • http://t.nyaatracker.com:80/announce
  • udp://tracker.doko.moe:6969/announce
  • http://asnet.pw:2710/announce
  • udp://thetracker.org:80/announce
  • http://tracker.tfile.co:80/announce
  • http://pt.lax.mx:80/announce
  • udp://santost12.xyz:6969/announce
  • https://tracker.bt-hash.com:443/announce
  • udp://bt.xxx-tracker.com:2710/announce
  • udp://tracker.vanitycore.co:6969/announce
  • udp://zephir.monocul.us:6969/announce
  • http://grifon.info:80/announce
  • http://retracker.spark-rostov.ru:80/announce
  • http://tr.kxmp.cf:80/announce
  • http://tracker.city9x.com:2710/announce
  • udp://bt.aoeex.com:8000/announce
  • http://tracker.tfile.me:80/announce
  • udp://tracker.tiny-vps.com:6969/announce
  • http://retracker.telecom.by:80/announce
  • http://tracker.electro-torrent.pl:80/announce
  • udp://tracker.tvunderground.org.ru:3218/announce
  • udp://tracker.halfchub.club:6969/announce
  • udp://retracker.nts.su:2710/announce
  • udp://wambo.club:1337/announce
  • udp://tracker.dutchtracking.com:6969/announce
  • udp://tc.animereactor.ru:8082/announce
  • udp://tracker.justseed.it:1337/announce
  • udp://tracker.leechers-paradise.org:6969/announce
  • udp://tracker.opentrackr.org:1337/announce
  • https://open.kickasstracker.com:443/announce
  • udp://tracker.coppersurfer.tk:6969/announce
  • udp://open.stealth.si:80/announce
  • http://retracker.mgts.by:80/announce
  • http://retracker.bashtel.ru:80/announce
  • udp://inferno.demonoid.pw:3418/announce
  • udp://tracker.cypherpunks.ru:6969/announce
  • http://tracker.calculate.ru:6969/announce
  • udp://tracker.sktorrent.net:6969/announce
  • udp://tracker.grepler.com:6969/announce
  • udp://tracker.flashtorrents.org:6969/announce
  • udp://tracker.yoshi210.com:6969/announce
  • udp://tracker.tiny-vps.com:6969/announce
  • udp://tracker.internetwarriors.net:1337/announce
  • udp://mgtracker.org:2710/announce
  • http://tracker.yoshi210.com:6969/announce
  • http://tracker.tiny-vps.com:6969/announce
  • udp://tracker.filetracker.pl:8089/announce
  • udp://tracker.ex.ua:80/announce
  • http://mgtracker.org:2710/announce
  • udp://tracker.aletorrenty.pl:2710/announce
  • http://tracker.filetracker.pl:8089/announce
  • http://tracker.ex.ua/announce
  • http://mgtracker.org:6969/announce
  • http://retracker.krs-ix.ru:80/announce
  • udp://tracker2.indowebster.com:6969/announce
  • http://thetracker.org:80/announce
  • http://tracker.bittor.pw:1337/announce
  • udp://tracker.kicks-ass.net:80/announce
  • udp://tracker.aletorrenty.pl:2710/announce
  • http://tracker.aletorrenty.pl:2710/announce
  • http://tracker.bittorrent.am/announce
  • udp://tracker.kicks-ass.net:80/announce
  • http://tracker.kicks-ass.net/announce
  • http://tracker.baravik.org:6970/announce
  • http://tracker.dutchtracking.com/announce
  • http://tracker.dutchtracking.com:80/announce
  • udp://tracker4.piratux.com:6969/announce
  • http://tracker.internetwarriors.net:1337/announce
  • udp://tracker.skyts.net:6969/announce
  • http://tracker.dutchtracking.nl/announce
  • http://tracker2.itzmx.com:6961/announce
  • http://tracker2.wasabii.com.tw:6969/announce
  • udp://tracker.sktorrent.net:6969/announce
  • http://www.wareztorrent.com:80/announce
  • udp://bt.xxx-tracker.com:2710/announce
  • udp://tracker.eddie4.nl:6969/announce
  • udp://tracker.grepler.com:6969/announce
  • udp://tracker.mg64.net:2710/announce
  • udp://tracker.coppersurfer.tk:6969/announce
  • http://tracker.opentrackr.org:1337/announce
  • http://tracker.dutchtracking.nl:80/announce
  • http://tracker.edoardocolombo.eu:6969/announce
  • http://tracker.ex.ua:80/announce
  • http://tracker.kicks-ass.net:80/announce
  • http://tracker.mg64.net:6881/announce
  • udp://tracker.flashtorrents.org:6969/announce
  • http://tracker.tfile.me/announce
  • http://tracker1.wasabii.com.tw:6969/announce
  • udp://tracker.bittor.pw:1337/announce
  • http://tracker.tvunderground.org.ru:3218/announce
  • http://tracker.grepler.com:6969/announce
  • udp://tracker.bittor.pw:1337/announce
  • http://tracker.flashtorrents.org:6969/announce
  • http://retracker.gorcomnet.ru/announce
  • udp://tracker.sktorrent.net:6969/announce
  • udp://tracker.sktorrent.net:6969
  • udp://public.popcorn-tracker.org:6969/announce
  • udp://tracker.ilibr.org:80/announce
  • udp://tracker.kuroy.me:5944/announce
  • udp://tracker.mg64.net:6969/announce
  • udp://tracker.cyberia.is:6969/announce
  • http://tracker.devil-torrents.pl:80/announce
  • udp://tracker2.christianbro.pw:6969/announce
  • udp://retracker.lanta-net.ru:2710/announce
  • udp://tracker.internetwarriors.net:1337/announce
  • udp://ulfbrueggemann.no-ip.org:6969/announce
  • http://torrentsmd.eu:8080/announce
  • udp://peerfect.org:6969/announce
  • udp://tracker.swateam.org.uk:2710/announce
  • http://ns349743.ip-91-121-106.eu:80/announce
  • http://torrentsmd.me:8080/announce
  • http://agusiq-torrents.pl:6969/announce
  • http://fxtt.ru:80/announce
  • udp://tracker.vanitycore.co:6969/announce
  • udp://explodie.org:6969