DC Extended Universe 8-Movie Collection (2013-2020) 1080p 10bit B...

  • Category Movies
  • Type Dubs/Dual Audio
  • Language Hindi
  • Total size 37.5 GB
  • Uploaded By McuDudeS
  • Downloads 926
  • Last checked 43 minutes ago
  • Date uploaded 2 days ago
  • Seeders 41
  • Leechers 83

Infohash : 03F52F7631A0291CCDAC9B60B53A8501A2A1E0CE



Tell me. Do You Bleed?...



DC Extended Universe 8-Movie Collection (2013-2020) 1080p 10bit Bluray x265 HEVC [Org DD 5.1 Hindi + DD 5.1 English] MSubs ~ TombDoc





Man of Steel (2013) 1080p 10bit Bluray x265 HEVC [Org DD 5.1 Hindi + DD 5.1 English] ESub ~ TombDoc


Code:

Format                                   : Matroska
Format version                           : Version 4
File size                                : 5.09 GiB
Duration                                 : 2 h 23 min
Overall bit rate                         : 5 090 kb/s

Video
ID                                       : 1
Format                                   : HEVC
Format/Info                              : High Efficiency Video Coding
Format profile                           : Main [email protected]@Main
Codec ID                                 : V_MPEGH/ISO/HEVC
Duration                                 : 2 h 23 min
Bit rate                                 : 3 990 kb/s
Width                                    : 1 920 pixels
Height                                   : 800 pixels
Display aspect ratio                     : 2.40:1
Frame rate mode                          : Constant
Frame rate                               : 23.976 (24000/1001) FPS
Color space                              : YUV
Chroma subsampling                       : 4:2:0
Bit depth                                : 10 bits
Bits/(Pixel*Frame)                       : 0.108
Stream size                              : 3.99 GiB (78%)
Default                                  : Yes
Forced                                   : No

Audio #1
ID                                       : 2
Format                                   : E-AC-3
Format/Info                              : Enhanced AC-3
Commercial name                          : Dolby Digital Plus
Codec ID                                 : A_EAC3
Duration                                 : 2 h 22 min
Bit rate mode                            : Constant
Bit rate                                 : 640 kb/s
Channel(s)                               : 6 channels
Channel layout                           : L R C LFE Ls Rs
Sampling rate                            : 48.0 kHz
Frame rate                               : 31.250 FPS (1536 SPF)
Compression mode                         : Lossy
Delay relative to video                  : 1 s 11 ms
Stream size                              : 655 MiB (13%)
Title                                    : Org Amz DD+ 5.1 640Kbps ~ TombDoc
Language                                 : Hindi
Service kind                             : Complete Main
Default                                  : Yes
Forced                                   : Yes

Audio #2
ID                                       : 3
Format                                   : E-AC-3
Format/Info                              : Enhanced AC-3
Commercial name                          : Dolby Digital Plus
Codec ID                                 : A_EAC3
Duration                                 : 2 h 23 min
Bit rate mode                            : Constant
Bit rate                                 : 448 kb/s
Channel(s)                               : 6 channels
Channel layout                           : L R C LFE Ls Rs
Sampling rate                            : 48.0 kHz
Frame rate                               : 31.250 FPS (1536 SPF)
Compression mode                         : Lossy
Stream size                              : 458 MiB (9%)
Title                                    : DD+ 5.1 English
Language                                 : English
Service kind                             : Complete Main
Default                                  : No
Forced                                   : No

Text
ID                                       : 4
Format                                   : PGS
Muxing mode                              : zlib
Codec ID                                 : S_HDMV/PGS
Codec ID/Info                            : Picture based subtitle format used on BDs/HD-DVDs
Duration                                 : 2 h 22 min
Bit rate                                 : 23.1 kb/s
Count of elements                        : 2940
Stream size                              : 23.5 MiB (0%)
Title                                    : Eng BD-PGS-SDH
Language                                 : English
Default                                  : No
Forced                                   : No
Menu
Chapters                                 : Yes






Batman v Superman: Dawn of Justice (2016) Ult. Edition 1080p 10bit Bluray x265 HEVC [Org DD 5.1 Hindi + DD 5.1 English] ESub ~ TombDoc


Code:

Format                                   : Matroska
Format version                           : Version 4
File size                                : 6.49 GiB
Duration                                 : 3 h 2 min
Overall bit rate                         : 5 090 kb/s

Video
ID                                       : 1
Format                                   : HEVC
Format/Info                              : High Efficiency Video Coding
Format profile                           : Main [email protected]@Main
Codec ID                                 : V_MPEGH/ISO/HEVC
Duration                                 : 3 h 2 min
Bit rate                                 : 3 991 kb/s
Width                                    : 1 920 pixels
Height                                   : 800 pixels
Display aspect ratio                     : 2.40:1
Frame rate mode                          : Constant
Frame rate                               : 23.976 (24000/1001) FPS
Color space                              : YUV
Chroma subsampling                       : 4:2:0
Bit depth                                : 10 bits
Bits/(Pixel*Frame)                       : 0.108
Stream size                              : 5.09 GiB (78%)
Default                                  : Yes
Forced                                   : No

Audio #1
ID                                       : 2
Format                                   : E-AC-3
Format/Info                              : Enhanced AC-3
Commercial name                          : Dolby Digital Plus
Codec ID                                 : A_EAC3
Duration                                 : 3 h 2 min
Bit rate mode                            : Constant
Bit rate                                 : 640 kb/s
Channel(s)                               : 6 channels
Channel layout                           : L R C LFE Ls Rs
Sampling rate                            : 48.0 kHz
Frame rate                               : 31.250 FPS (1536 SPF)
Compression mode                         : Lossy
Stream size                              : 836 MiB (13%)
Title                                    : Org UE Amz DD+ 5.1 640Kbps ~ TombDoc
Language                                 : Hindi
Service kind                             : Complete Main
Default                                  : Yes
Forced                                   : Yes

Audio #2
ID                                       : 3
Format                                   : E-AC-3
Format/Info                              : Enhanced AC-3
Commercial name                          : Dolby Digital Plus
Codec ID                                 : A_EAC3
Duration                                 : 3 h 2 min
Bit rate mode                            : Constant
Bit rate                                 : 448 kb/s
Channel(s)                               : 6 channels
Channel layout                           : L R C LFE Ls Rs
Sampling rate                            : 48.0 kHz
Frame rate                               : 31.250 FPS (1536 SPF)
Compression mode                         : Lossy
Stream size                              : 585 MiB (9%)
Title                                    : DD+ 5.1 English
Language                                 : English
Service kind                             : Complete Main
Default                                  : No
Forced                                   : No

Text
ID                                       : 4
Format                                   : PGS
Muxing mode                              : zlib
Codec ID                                 : S_HDMV/PGS
Codec ID/Info                            : Picture based subtitle format used on BDs/HD-DVDs
Duration                                 : 3 h 2 min
Bit rate                                 : 27.4 kb/s
Count of elements                        : 3830
Stream size                              : 35.7 MiB (1%)
Title                                    : Eng BD-PGS-SDH
Language                                 : English
Default                                  : No
Forced                                   : No
Menu
Chapters                                 : Yes






Suicide Squad (2016) Extended Cut 1080p 10bit Bluray x265 HEVC English DDP 5.1 ESub ~ TombDoc


Code:

Format                                   : Matroska
Format version                           : Version 4
File size                                : 4.19 GiB
Duration                                 : 2 h 14 min
Overall bit rate                         : 4 462 kb/s

Video
ID                                       : 1
Format                                   : HEVC
Format/Info                              : High Efficiency Video Coding
Format profile                           : Main [email protected]@Main
Codec ID                                 : V_MPEGH/ISO/HEVC
Duration                                 : 2 h 14 min
Bit rate                                 : 4 001 kb/s
Width                                    : 1 920 pixels
Height                                   : 800 pixels
Display aspect ratio                     : 2.40:1
Frame rate mode                          : Constant
Frame rate                               : 23.976 (24000/1001) FPS
Color space                              : YUV
Chroma subsampling                       : 4:2:0
Bit depth                                : 10 bits
Bits/(Pixel*Frame)                       : 0.109
Stream size                              : 3.76 GiB (90%)
Default                                  : Yes
Forced                                   : No

Audio
ID                                       : 2
Format                                   : E-AC-3
Format/Info                              : Enhanced AC-3
Commercial name                          : Dolby Digital Plus
Codec ID                                 : A_EAC3
Duration                                 : 2 h 14 min
Bit rate mode                            : Constant
Bit rate                                 : 448 kb/s
Channel(s)                               : 6 channels
Channel layout                           : L R C LFE Ls Rs
Sampling rate                            : 48.0 kHz
Frame rate                               : 31.250 FPS (1536 SPF)
Compression mode                         : Lossy
Stream size                              : 431 MiB (10%)
Title                                    : English DD+ 5.1 640Kbps ~ TombDoc
Language                                 : English
Service kind                             : Complete Main
Default                                  : Yes
Forced                                   : Yes

Text
ID                                       : 3
Format                                   : PGS
Muxing mode                              : zlib
Codec ID                                 : S_HDMV/PGS
Codec ID/Info                            : Picture based subtitle format used on BDs/HD-DVDs
Duration                                 : 2 h 13 min
Bit rate                                 : 33.1 kb/s
Count of elements                        : 3648
Stream size                              : 31.8 MiB (1%)
Title                                    : Eng BD-PGS-SDH
Language                                 : English
Default                                  : Yes
Forced                                   : Yes
Menu
Chapters                                 : Yes






Wonder Woman (2017) 1080p 10bit Bluray x265 HEVC English DDP 5.1 MSubs ~ TombDoc


Code:

Format                                   : Matroska
Format version                           : Version 4
File size                                : 4.46 GiB
Duration                                 : 2 h 21 min
Overall bit rate                         : 4 522 kb/s

Video
ID                                       : 1
Format                                   : HEVC
Format/Info                              : High Efficiency Video Coding
Format profile                           : Main [email protected]@Main
Codec ID                                 : V_MPEGH/ISO/HEVC
Duration                                 : 2 h 21 min
Bit rate                                 : 4 001 kb/s
Width                                    : 1 920 pixels
Height                                   : 800 pixels
Display aspect ratio                     : 2.40:1
Frame rate mode                          : Constant
Frame rate                               : 23.976 (24000/1001) FPS
Color space                              : YUV
Chroma subsampling                       : 4:2:0
Bit depth                                : 10 bits
Bits/(Pixel*Frame)                       : 0.109
Stream size                              : 3.95 GiB (88%)
Default                                  : Yes
Forced                                   : No

Audio
ID                                       : 2
Format                                   : E-AC-3
Format/Info                              : Enhanced AC-3
Commercial name                          : Dolby Digital Plus
Codec ID                                 : A_EAC3
Duration                                 : 2 h 21 min
Bit rate mode                            : Constant
Bit rate                                 : 448 kb/s
Channel(s)                               : 6 channels
Channel layout                           : L R C LFE Ls Rs
Sampling rate                            : 48.0 kHz
Frame rate                               : 31.250 FPS (1536 SPF)
Compression mode                         : Lossy
Stream size                              : 453 MiB (10%)
Title                                    : English DD+ 5.1 640Kbps ~ TombDoc
Language                                 : English
Service kind                             : Complete Main
Default                                  : Yes
Forced                                   : Yes

Text #1
ID                                       : 3
Format                                   : PGS
Muxing mode                              : zlib
Codec ID                                 : S_HDMV/PGS
Codec ID/Info                            : Picture based subtitle format used on BDs/HD-DVDs
Duration                                 : 2 h 9 min
Bit rate                                 : 21.5 kb/s
Count of elements                        : 3168
Stream size                              : 19.9 MiB (0%)
Title                                    : Hindi BD-PGS
Language                                 : Hindi
Default                                  : Yes
Forced                                   : Yes

Text #2
ID                                       : 4
Format                                   : PGS
Muxing mode                              : zlib
Codec ID                                 : S_HDMV/PGS
Codec ID/Info                            : Picture based subtitle format used on BDs/HD-DVDs
Duration                                 : 2 h 20 min
Bit rate                                 : 31.4 kb/s
Count of elements                        : 3654
Stream size                              : 31.5 MiB (1%)
Title                                    : Eng BD-PGS-SDH
Language                                 : English
Default                                  : No
Forced                                   : No

Text #3
ID                                       : 5
Format                                   : PGS
Muxing mode                              : zlib
Codec ID                                 : S_HDMV/PGS
Codec ID/Info                            : Picture based subtitle format used on BDs/HD-DVDs
Duration                                 : 2 h 9 min
Bit rate                                 : 53.8 kb/s
Count of elements                        : 3168
Stream size                              : 49.8 MiB (1%)
Title                                    : Tamil BD-PGS
Language                                 : Tamil
Default                                  : No
Forced                                   : No

Text #4
ID                                       : 6
Format                                   : PGS
Muxing mode                              : zlib
Codec ID                                 : S_HDMV/PGS
Codec ID/Info                            : Picture based subtitle format used on BDs/HD-DVDs
Duration                                 : 2 h 9 min
Bit rate                                 : 37.7 kb/s
Count of elements                        : 3174
Stream size                              : 35.0 MiB (1%)
Title                                    : Telugu BD-PGS
Language                                 : Telugu
Default                                  : No
Forced                                   : No
Menu
Chapters                                 : Yes






Justice League (2017) 1080p 10bit Bluray x265 HEVC [Org UHD BD 5.1 Hindi + DD 5.1 English] MSubs ~ TombDoc


Code:

Format                                   : Matroska
Format version                           : Version 4
File size                                : 4.11 GiB
Duration                                 : 2 h 0 min
Overall bit rate                         : 4 907 kb/s

Video
ID                                       : 1
Format                                   : HEVC
Format/Info                              : High Efficiency Video Coding
Format profile                           : Main [email protected]@Main
Codec ID                                 : V_MPEGH/ISO/HEVC
Duration                                 : 2 h 0 min
Bit rate                                 : 3 998 kb/s
Width                                    : 1 920 pixels
Height                                   : 1 080 pixels
Display aspect ratio                     : 16:9
Frame rate mode                          : Constant
Frame rate                               : 23.976 (24000/1001) FPS
Color space                              : YUV
Chroma subsampling                       : 4:2:0
Bit depth                                : 10 bits
Bits/(Pixel*Frame)                       : 0.080
Stream size                              : 3.35 GiB (81%)
Default                                  : Yes
Forced                                   : No

Audio #1
ID                                       : 2
Format                                   : AC-3
Format/Info                              : Audio Coding 3
Commercial name                          : Dolby Digital
Codec ID                                 : A_AC3
Duration                                 : 2 h 0 min
Bit rate mode                            : Constant
Bit rate                                 : 448 kb/s
Channel(s)                               : 6 channels
Channel layout                           : L R C LFE Ls Rs
Sampling rate                            : 48.0 kHz
Frame rate                               : 31.250 FPS (1536 SPF)
Compression mode                         : Lossy
Stream size                              : 385 MiB (9%)
Title                                    : Org UHD BD 5.1 448Kbps ~ TombDoc
Language                                 : Hindi
Service kind                             : Complete Main
Default                                  : Yes
Forced                                   : Yes

Audio #2
ID                                       : 3
Format                                   : E-AC-3
Format/Info                              : Enhanced AC-3
Commercial name                          : Dolby Digital Plus
Codec ID                                 : A_EAC3
Duration                                 : 2 h 0 min
Bit rate mode                            : Constant
Bit rate                                 : 448 kb/s
Channel(s)                               : 6 channels
Channel layout                           : L R C LFE Ls Rs
Sampling rate                            : 48.0 kHz
Frame rate                               : 31.250 FPS (1536 SPF)
Compression mode                         : Lossy
Stream size                              : 385 MiB (9%)
Title                                    : DD+ 5.1 English
Language                                 : English
Service kind                             : Complete Main
Default                                  : No
Forced                                   : No

Text #1
ID                                       : 4
Format                                   : PGS
Muxing mode                              : zlib
Codec ID                                 : S_HDMV/PGS
Codec ID/Info                            : Picture based subtitle format used on BDs/HD-DVDs
Duration                                 : 1 h 57 min
Bit rate                                 : 674 b/s
Count of elements                        : 62
Stream size                              : 583 KiB (0%)
Title                                    : Hindi BD-PGS {Forced}
Language                                 : Hindi
Default                                  : Yes
Forced                                   : Yes

Text #2
ID                                       : 5
Format                                   : PGS
Muxing mode                              : zlib
Codec ID                                 : S_HDMV/PGS
Codec ID/Info                            : Picture based subtitle format used on BDs/HD-DVDs
Duration                                 : 1 h 59 min
Bit rate                                 : 30.8 kb/s
Count of elements                        : 3014
Stream size                              : 26.2 MiB (1%)
Title                                    : Eng BD-PGS-SDH
Language                                 : English
Default                                  : No
Forced                                   : No

Text #3
ID                                       : 6
Format                                   : PGS
Muxing mode                              : zlib
Codec ID                                 : S_HDMV/PGS
Codec ID/Info                            : Picture based subtitle format used on BDs/HD-DVDs
Duration                                 : 1 h 56 min
Bit rate                                 : 677 b/s
Count of elements                        : 60
Stream size                              : 577 KiB (0%)
Title                                    : Tamil BD-PGS {Forced}
Language                                 : Tamil
Default                                  : No
Forced                                   : No

Text #4
ID                                       : 7
Format                                   : PGS
Muxing mode                              : zlib
Codec ID                                 : S_HDMV/PGS
Codec ID/Info                            : Picture based subtitle format used on BDs/HD-DVDs
Duration                                 : 1 h 57 min
Bit rate                                 : 505 b/s
Count of elements                        : 62
Stream size                              : 436 KiB (0%)
Title                                    : Telugu BD-PGS {Forced}
Language                                 : Telugu
Default                                  : No
Forced                                   : No
Menu
Chapters                                 : Yes






Aquaman (2018) IMAX 1080p 10bit Bluray x265 HEVC [Org UHD BD 5.1 Hindi + DD 5.1 English] MSubs ~ TombDoc


Code:

Format                                   : Matroska
Format version                           : Version 4
File size                                : 4.91 GiB
Duration                                 : 2 h 23 min
Overall bit rate                         : 4 907 kb/s

Video
ID                                       : 1
Format                                   : HEVC
Format/Info                              : High Efficiency Video Coding
Format profile                           : Main [email protected]@Main
Codec ID                                 : V_MPEGH/ISO/HEVC
Duration                                 : 2 h 23 min
Bit rate                                 : 4 001 kb/s
Width                                    : 1 920 pixels
Height                                   : 1 080 pixels
Display aspect ratio                     : 16:9
Frame rate mode                          : Constant
Frame rate                               : 23.976 (24000/1001) FPS
Color space                              : YUV
Chroma subsampling                       : 4:2:0
Bit depth                                : 10 bits
Bits/(Pixel*Frame)                       : 0.080
Stream size                              : 4.01 GiB (82%)
Default                                  : Yes
Forced                                   : No

Audio #1
ID                                       : 2
Format                                   : AC-3
Format/Info                              : Audio Coding 3
Commercial name                          : Dolby Digital
Codec ID                                 : A_AC3
Duration                                 : 2 h 23 min
Bit rate mode                            : Constant
Bit rate                                 : 448 kb/s
Channel(s)                               : 6 channels
Channel layout                           : L R C LFE Ls Rs
Sampling rate                            : 48.0 kHz
Frame rate                               : 31.250 FPS (1536 SPF)
Compression mode                         : Lossy
Delay relative to video                  : 986 ms
Stream size                              : 459 MiB (9%)
Title                                    : Org UHD BD 5.1 448Kbps ~ TombDoc
Language                                 : Hindi
Service kind                             : Complete Main
Default                                  : Yes
Forced                                   : Yes

Audio #2
ID                                       : 3
Format                                   : E-AC-3
Format/Info                              : Enhanced AC-3
Commercial name                          : Dolby Digital Plus
Codec ID                                 : A_EAC3
Duration                                 : 2 h 23 min
Bit rate mode                            : Constant
Bit rate                                 : 448 kb/s
Channel(s)                               : 6 channels
Channel layout                           : L R C LFE Ls Rs
Sampling rate                            : 48.0 kHz
Frame rate                               : 31.250 FPS (1536 SPF)
Compression mode                         : Lossy
Stream size                              : 459 MiB (9%)
Title                                    : DD+ 5.1 English
Language                                 : English
Service kind                             : Complete Main
Default                                  : No
Forced                                   : No

Text #1
ID                                       : 4
Format                                   : PGS
Muxing mode                              : zlib
Codec ID                                 : S_HDMV/PGS
Codec ID/Info                            : Picture based subtitle format used on BDs/HD-DVDs
Duration                                 : 2 h 18 min
Bit rate                                 : 224 b/s
Count of elements                        : 34
Stream size                              : 228 KiB (0%)
Title                                    : Hindi BD-PGS {Forced}
Language                                 : Hindi
Default                                  : Yes
Forced                                   : Yes

Text #2
ID                                       : 5
Format                                   : PGS
Muxing mode                              : zlib
Codec ID                                 : S_HDMV/PGS
Codec ID/Info                            : Picture based subtitle format used on BDs/HD-DVDs
Duration                                 : 2 h 22 min
Bit rate                                 : 25.8 kb/s
Count of elements                        : 2940
Stream size                              : 26.4 MiB (1%)
Title                                    : Eng BD-PGS-SDH
Language                                 : English
Default                                  : No
Forced                                   : No

Text #3
ID                                       : 6
Format                                   : PGS
Muxing mode                              : zlib
Codec ID                                 : S_HDMV/PGS
Codec ID/Info                            : Picture based subtitle format used on BDs/HD-DVDs
Duration                                 : 2 h 18 min
Bit rate                                 : 332 b/s
Count of elements                        : 34
Stream size                              : 338 KiB (0%)
Title                                    : Tamil BD-PGS {Forced}
Language                                 : Tamil
Default                                  : No
Forced                                   : No

Text #4
ID                                       : 7
Format                                   : PGS
Muxing mode                              : zlib
Codec ID                                 : S_HDMV/PGS
Codec ID/Info                            : Picture based subtitle format used on BDs/HD-DVDs
Duration                                 : 1 h 59 min
Bit rate                                 : 120 b/s
Count of elements                        : 12
Stream size                              : 106 KiB (0%)
Title                                    : Telugu BD-PGS {Forced}
Language                                 : Telugu
Default                                  : No
Forced                                   : No
Menu
Chapters                                 : Yes






Shazam! (2019) 1080p 10bit Bluray x265 HEVC [Org UHD BD 5.1 Hindi + DD 5.1 English] MSubs ~ TombDoc


Code:

Format                                   : Matroska
Format version                           : Version 4
File size                                : 4.52 GiB
Duration                                 : 2 h 11 min
Overall bit rate                         : 4 912 kb/s

Video
ID                                       : 1
Format                                   : HEVC
Format/Info                              : High Efficiency Video Coding
Format profile                           : Main [email protected]@Main
Codec ID                                 : V_MPEGH/ISO/HEVC
Duration                                 : 2 h 11 min
Bit rate                                 : 4 000 kb/s
Width                                    : 1 920 pixels
Height                                   : 804 pixels
Display aspect ratio                     : 2.40:1
Frame rate mode                          : Constant
Frame rate                               : 23.976 (24000/1001) FPS
Color space                              : YUV
Chroma subsampling                       : 4:2:0
Bit depth                                : 10 bits
Bits/(Pixel*Frame)                       : 0.108
Stream size                              : 3.68 GiB (81%)
Default                                  : Yes
Forced                                   : No

Audio #1
ID                                       : 2
Format                                   : AC-3
Format/Info                              : Audio Coding 3
Commercial name                          : Dolby Digital
Codec ID                                 : A_AC3
Duration                                 : 2 h 11 min
Bit rate mode                            : Constant
Bit rate                                 : 448 kb/s
Channel(s)                               : 6 channels
Channel layout                           : L R C LFE Ls Rs
Sampling rate                            : 48.0 kHz
Frame rate                               : 31.250 FPS (1536 SPF)
Compression mode                         : Lossy
Stream size                              : 422 MiB (9%)
Title                                    : Org UHD BD 5.1 448Kbps ~ TombDoc
Language                                 : Hindi
Service kind                             : Complete Main
Default                                  : Yes
Forced                                   : Yes

Audio #2
ID                                       : 3
Format                                   : E-AC-3
Format/Info                              : Enhanced AC-3
Commercial name                          : Dolby Digital Plus
Codec ID                                 : A_EAC3
Duration                                 : 2 h 11 min
Bit rate mode                            : Constant
Bit rate                                 : 448 kb/s
Channel(s)                               : 6 channels
Channel layout                           : L R C LFE Ls Rs
Sampling rate                            : 48.0 kHz
Frame rate                               : 31.250 FPS (1536 SPF)
Compression mode                         : Lossy
Stream size                              : 422 MiB (9%)
Title                                    : DD+ 5.1 English
Language                                 : English
Service kind                             : Complete Main
Default                                  : No
Forced                                   : No

Text #1
ID                                       : 4
Format                                   : PGS
Muxing mode                              : zlib
Codec ID                                 : S_HDMV/PGS
Codec ID/Info                            : Picture based subtitle format used on BDs/HD-DVDs
Duration                                 : 2 h 8 min
Bit rate                                 : 625 b/s
Count of elements                        : 106
Stream size                              : 587 KiB (0%)
Title                                    : Hindi BD-PGS {Forced}
Language                                 : Hindi
Default                                  : Yes
Forced                                   : Yes

Text #2
ID                                       : 5
Format                                   : PGS
Muxing mode                              : zlib
Codec ID                                 : S_HDMV/PGS
Codec ID/Info                            : Picture based subtitle format used on BDs/HD-DVDs
Duration                                 : 2 h 11 min
Bit rate                                 : 39.8 kb/s
Count of elements                        : 4310
Stream size                              : 37.4 MiB (1%)
Title                                    : Eng BD-PGS-SDH
Language                                 : English
Default                                  : No
Forced                                   : No

Text #3
ID                                       : 6
Format                                   : PGS
Muxing mode                              : zlib
Codec ID                                 : S_HDMV/PGS
Codec ID/Info                            : Picture based subtitle format used on BDs/HD-DVDs
Duration                                 : 2 h 8 min
Bit rate                                 : 821 b/s
Count of elements                        : 96
Stream size                              : 771 KiB (0%)
Title                                    : Tamil BD-PGS {Forced}
Language                                 : Tamil
Default                                  : No
Forced                                   : No

Text #4
ID                                       : 7
Format                                   : PGS
Muxing mode                              : zlib
Codec ID                                 : S_HDMV/PGS
Codec ID/Info                            : Picture based subtitle format used on BDs/HD-DVDs
Duration                                 : 2 h 8 min
Bit rate                                 : 629 b/s
Count of elements                        : 98
Stream size                              : 591 KiB (0%)
Title                                    : Telugu BD-PGS {Forced}
Language                                 : Telugu
Default                                  : No
Forced                                   : No
Menu
Chapters                                 : Yes






Birds of Prey: ATFEOOHQ (2020) 1080p 10bit Bluray x265 HEVC [Org UHD BD 5.1 Hindi + DD 5.1 English] MSubs ~ TombDoc


Code:

Format                                   : Matroska
Format version                           : Version 4
File size                                : 3.74 GiB
Duration                                 : 1 h 48 min
Overall bit rate                         : 4 913 kb/s

Video
ID                                       : 1
Format                                   : HEVC
Format/Info                              : High Efficiency Video Coding
Format profile                           : Main [email protected]@Main
Codec ID                                 : V_MPEGH/ISO/HEVC
Duration                                 : 1 h 48 min
Bit rate                                 : 4 000 kb/s
Width                                    : 1 920 pixels
Height                                   : 804 pixels
Display aspect ratio                     : 2.40:1
Frame rate mode                          : Constant
Frame rate                               : 23.976 (24000/1001) FPS
Color space                              : YUV
Chroma subsampling                       : 4:2:0
Bit depth                                : 10 bits
Bits/(Pixel*Frame)                       : 0.108
Stream size                              : 3.04 GiB (81%)
Default                                  : Yes
Forced                                   : No

Audio #1
ID                                       : 2
Format                                   : AC-3
Format/Info                              : Audio Coding 3
Commercial name                          : Dolby Digital
Codec ID                                 : A_AC3
Duration                                 : 1 h 48 min
Bit rate mode                            : Constant
Bit rate                                 : 448 kb/s
Channel(s)                               : 6 channels
Channel layout                           : L R C LFE Ls Rs
Sampling rate                            : 48.0 kHz
Frame rate                               : 31.250 FPS (1536 SPF)
Compression mode                         : Lossy
Stream size                              : 349 MiB (9%)
Title                                    : Org UHD BD 5.1 448Kbps ~ TombDoc
Language                                 : Hindi
Service kind                             : Complete Main
Default                                  : Yes
Forced                                   : Yes

Audio #2
ID                                       : 3
Format                                   : E-AC-3
Format/Info                              : Enhanced AC-3
Commercial name                          : Dolby Digital Plus
Codec ID                                 : A_EAC3
Duration                                 : 1 h 48 min
Bit rate mode                            : Constant
Bit rate                                 : 448 kb/s
Channel(s)                               : 6 channels
Channel layout                           : L R C LFE Ls Rs
Sampling rate                            : 48.0 kHz
Frame rate                               : 31.250 FPS (1536 SPF)
Compression mode                         : Lossy
Stream size                              : 349 MiB (9%)
Title                                    : DD+ 5.1 English
Language                                 : English
Service kind                             : Complete Main
Default                                  : No
Forced                                   : No

Text #1
ID                                       : 4
Format                                   : PGS
Muxing mode                              : zlib
Codec ID                                 : S_HDMV/PGS
Codec ID/Info                            : Picture based subtitle format used on BDs/HD-DVDs
Duration                                 : 1 h 47 min
Bit rate                                 : 789 b/s
Count of elements                        : 102
Stream size                              : 623 KiB (0%)
Title                                    : Hindi BD-PGS {Forced}
Language                                 : Hindi
Default                                  : Yes
Forced                                   : Yes

Text #2
ID                                       : 5
Format                                   : PGS
Muxing mode                              : zlib
Codec ID                                 : S_HDMV/PGS
Codec ID/Info                            : Picture based subtitle format used on BDs/HD-DVDs
Duration                                 : 1 h 48 min
Bit rate                                 : 44.5 kb/s
Count of elements                        : 3876
Stream size                              : 34.5 MiB (1%)
Title                                    : Eng BD-PGS-SDH
Language                                 : English
Default                                  : No
Forced                                   : No
Menu
Chapters                                 : Yes



Code:

Source:
-Man of Steel 2013 1080p CEE Blu-ray AVC DTS-HD MA 7.1-HDCLUB
-Batman v Superman: Dawn of Justice 2016 1080p TW 3-Disc Blu-ray AVC TrueHD Atmos 7.1-TTG
-Suicide Squad 2016 TW 2D+3D+EC 3-Disc Blu-ray 1080p AVC TrueHD 7.1 -TTG
-Wonder Woman 2017 1080p CEE Blu-ray AVC TrueHD 7.1-nLiBRA
-Justice League 2017 1080p CEE Blu-ray AVC TrueHD 7.1-BLUEBIRD
--Justice League 2017 2160p UHD CEE BluRay HDR HEVC Atmos-CYBER
-Aquaman 2018 1080p CEE Blu-ray AVC Atmos-MTeam
--Aquaman 2018 2160p UHD CEE Blu-ray HEVC TrueHD 7.1-BeyondHD
-Shazam! 2019 1080p CEE Blu-ray AVC Atmos TrueHD 7.1-CHDBits
--Shazam! 2019 2160p CEE UHD Blu-ray HEVC Atmos-EXTREME
-Birds of Prey: And the Fantabulous Emancipation of One Harley Quinn 2020 1080p Blu-ray AVC TrueHD 7.1-BeyondHD
--Birds of Prey: And the Fantabulous Emancipation of One Harley Quinn 2020 2160p UHD Blu-ray HEVC Atmos-BeyondHD

Note: In this DC Extended Universe Collection, All movies are newly encoded which are better than Previous ones.
Man of Steel was released in Hindi DVD. Obviously AMZN audio is better which I have used.
I have the 3D BD Hindi of Batman v Superman and I compared it with AMZN and it is far better than 3D BD audio. My Friend ReaperZa Synced this Audio with ULTIMATE EDITION. {Special Thanks to My Friend ReaperZa For Synching This Audio}
Suicide Squad and Wonder Woman was never dubbed in Hindi..
For Justice League, Aquaman, Shazam and Birds of Prey; I have compared UHD 4K BD 448 Kbps audio with AMZN 640 Kbps and personally, I liked UHD 4K BD 448 Kbps audio. Better Graph, Loudness Quality, Sound Effect, Overall everything is Best. That's Why I Used It..


EnjOyY the Quality...



Files:

DC Extended Universe 8-Movie Collection (2013-2020) ~ TombDoc
  • Aquaman (2018) IMAX 1080p 10bit Bluray x265 HEVC [Org UHD BD 5.1 Hindi + DD 5.1 English] MSubs ~ TombDoc.mkv (4.9 GB)
  • Batman v Superman - Dawn of Justice (2016) Ult. Edition 1080p 10bit Bluray x265 HEVC [Org DD 5.1 Hindi + DD 5.1 English] ESub ~ TombDoc.mkv (6.5 GB)
  • Birds of Prey - And the Fantabulous Emancipation of One Harley Quinn (2020) 1080p 10bit Bluray x265 HEVC [Org UHD BD 5.1 Hindi + DD 5.1 English] MSubs ~ TombDoc.mkv (3.7 GB)
  • DCEU.8-M.C {TD}.png (725.5 KB)
  • Justice League (2017) 1080p 10bit Bluray x265 HEVC [Org UHD BD 5.1 Hindi + DD 5.1 English] MSubs ~ TombDoc.mkv (4.1 GB)
  • Man of Steel (2013) 1080p 10bit Bluray x265 HEVC [Org DD 5.1 Hindi + DD 5.1 English] ESub ~ TombDoc.mkv (5.1 GB)
  • Shazam! (2019) 1080p 10bit Bluray x265 HEVC [Org UHD BD 5.1 Hindi + DD 5.1 English] MSubs ~ TombDoc.mkv (4.5 GB)
  • Suicide Squad (2016) Extended Cut 1080p 10bit Bluray x265 HEVC English DDP 5.1 ESub ~ TombDoc.mkv (4.2 GB)
  • Wonder Woman (2017) 1080p 10bit Bluray x265 HEVC English DDP 5.1 MSubs ~ TombDoc.mkv (4.5 GB)

Comments

Code:

  • udp://tracker.opentrackr.org:1337/announce
  • udp://tracker.coppersurfer.tk:6969/announce
  • udp://9.rarbg.to:2710/announce
  • udp://9.rarbg.me:2710/announce
  • udp://tracker.leechers-paradise.org:6969/announce
  • udp://tracker.internetwarriors.net:1337/announce
  • udp://tracker.cyberia.is:6969/announce
  • udp://exodus.desync.com:6969/announce
  • udp://explodie.org:6969/announce
  • udp://tracker3.itzmx.com:6961/announce
  • http://tracker1.itzmx.com:8080/announce
  • udp://tracker.tiny-vps.com:6969/announce
  • udp://open.stealth.si:80/announce
  • udp://tracker.ds.is:6969/announce
  • udp://tracker.torrent.eu.org:451/announce
  • udp://retracker.lanta-net.ru:2710/announce
  • http://open.acgnxtracker.com:80/announce
  • http://tracker4.itzmx.com:2710/announce
  • udp://tracker.moeking.me:6969/announce
  • udp://ipv4.tracker.harry.lu:80/announce