Happy Halloween Scooby-Doo (2020) 1080p 5.1 - 2.0 x264 Phun Psyz

  • Category Movies
  • Type HD
  • Language English
  • Total size 1.4 GB
  • Uploaded By PhunPsyz
  • Downloads 649
  • Last checked 1 hour ago
  • Date uploaded 5 days ago
  • Seeders 27
  • Leechers 5

Happy Halloween, Scooby-Doo!

AnimationFamilyMystery

With fake monsters and candy galore, Halloween is heaven for these hungry foodies going door-to-door. But this year, their sweet holiday turns sour when the neighborhood pumpkin patch is infected by toxic ooze, creating high-flying jack-o-lanterns, and a king-sized pumpkin leader squashing everything in its path. It’s up to Scooby-Doo and the gang as they team up with their pals, Bill Nye the Science Guy and Elvira, Mistress of the Dark, to solve this mystery of gigantic proportions and save Crystal Cove!

Infohash : 1AD039A64632A1E355B317A8CDB7788502D309A9

www.imdb.com/title/tt12838958/

Scooby-Doo and the team gather again to solve the mystery of gigantic proportions and save Crystal Cove.

Source: EVO (Web)



Format : MPEG-4
Format profile : Base Media / Version 2
Codec ID : mp42 (isom/iso2/avc1/mp41)
File size : 1.36 GiB
Duration : 1 h 16 min
Overall bit rate : 2 546 kb/s
Writing application : HandBrake 1.3.3 2020061300

Video
ID : 1
Format : AVC
Format/Info : Advanced Video Codec
Format profile : [email protected]
Format settings : CABAC / 1 Ref Frames
Format settings, CABAC : Yes
Format settings, Reference : 1 frame
Codec ID : avc1
Codec ID/Info : Advanced Video Coding
Duration : 1 h 16 min
Bit rate : 2 058 kb/s
Width : 1 916 pixels
Height : 1 076 pixels
Display aspect ratio : 16:9
Frame rate mode : Variable
Frame rate : 23.976 FPS
Minimum frame rate : 23.974 FPS
Color space : YUV
Chroma subsampling : 4:2:0
Bit depth : 8 bits
Scan type : Progressive
Bits/(Pixel*Frame) : 0.042
Stream size : 1.10 GiB (81%)
Writing library : x264 core 157 r2935 545de2f
Color range : Limited
Color primaries : BT.709
Transfer characteristics : BT.709
Matrix coefficients : BT.709

Audio #1
ID : 2
Format : AC-3
Format/Info : Audio Coding 3
Commercial name : Dolby Digital
Codec ID : ac-3
Duration : 1 h 16 min
Bit rate mode : Constant
Bit rate : 320 kb/s
Channel(s) : 6 channels
Channel layout : L R C LFE Ls Rs
Sampling rate : 48.0 kHz
Frame rate : 31.250 FPS (1536 SPF)
Compression mode : Lossy
Stream size : 174 MiB (13%)
Title : Surround
Language : English
Service kind : Complete Main
Default : Yes

Audio #2
ID : 3
Format : AAC LC
Format/Info : Advanced Audio Codec Low Complexity
Codec ID : mp4a-40-2
Duration : 1 h 16 min
Bit rate mode : Constant
Bit rate : 161 kb/s
Channel(s) : 2 channels
Channel layout : L R
Sampling rate : 48.0 kHz
Frame rate : 46.875 FPS (1024 SPF)
Compression mode : Lossy
Stream size : 87.6 MiB (6%)
Title : Stereo
Language : English

Files:

  • Happy Halloween Scooby-Doo (2020) 1080p 5.1 - 2.0 x264 Phun Psyz.mp4 (1.4 GB)

There are currently no comments. Feel free to leave one :)

Code:

  • udp://tracker.tiny-vps.com:6969/announce
  • udp://open.stealth.si:80/announce
  • udp://p4p.arenabg.com:1337/announce
  • udp://tracker.coppersurfer.tk:6969/announce
  • udp://tracker.uw0.xyz:6969/announce
  • udp://tracker.torrent.eu.org:451/announce
  • udp://explodie.org:6969/announce
  • udp://ipv4.tracker.harry.lu:80/announce
  • udp://retracker.lanta-net.ru:2710/announce
  • udp://exodus.desync.com:6969/announce
  • udp://tracker.iamhansen.xyz:2000/announce
  • udp://opentor.org:2710/announce
  • udp://tracker.moeking.me:6969/announce