The General 1998 Theatrical Version DVDRip XviD-EXViD

  • Category Movies
  • Type DVD
  • Language English
  • Total size 1.4 GB
  • Uploaded By Y8ss3r
  • Downloads 101
  • Last checked 37 minutes ago
  • Date uploaded 5 days ago
  • Seeders 3
  • Leechers 1

The General

ActionCrimeDramaForeign

In a twenty-year career marked by obsessive secrecy, brutality and meticulous planning, Cahill netted over £40 million. He was untouchable - until a bullet from an IRA hitman ended it all.

Infohash : E4F0736553EA7D71040010EF6E448438B20FB641

Plot:
The real-life story of Dublin folk hero and criminal Martin Cahill, who pulled off two daring robberies in Ireland with his team, but attracted unwanted attention from the police, the I.R.A., the U.V.F., and members of his own team.

https://www.imdb.com/title/tt0120706/

Info:

Quote:


Part 1

General
Complete name                            : exvid-general-cd1.avi
Format                                   : AVI
Format/Info                              : Audio Video Interleave
File size                                : 695 MiB
Duration                                 : 1 h 1 min
Overall bit rate                         : 1 587 kb/s
Writing application                      : Nandub v1.0rc2
Writing library                          : Nandub build 1852/release

Video
ID                                       : 0
Format                                   : MPEG-4 Visual
Format profile                           : Advanced [email protected]
Format settings                          : BVOP1
Format settings, BVOP                    : 1
Format settings, QPel                    : No
Format settings, GMC                     : No warppoints
Format settings, Matrix                  : Default (H.263)
Codec ID                                 : XVID
Codec ID/Hint                            : XviD
Duration                                 : 1 h 1 min
Bit rate                                 : 1 133 kb/s
Width                                    : 640 pixels
Height                                   : 272 pixels
Display aspect ratio                     : 2.35:1
Frame rate                               : 25.000 FPS
Color space                              : YUV
Chroma subsampling                       : 4:2:0
Bit depth                                : 8 bits
Scan type                                : Progressive
Compression mode                         : Lossy
Bits/(Pixel*Frame)                       : 0.260
Stream size                              : 496 MiB (71%)
Writing library                          : XviD 64

Audio
ID                                       : 1
Format                                   : AC-3
Format/Info                              : Audio Coding 3
Commercial name                          : Dolby Digital
Codec ID                                 : 2000
Duration                                 : 1 h 1 min
Bit rate mode                            : Constant
Bit rate                                 : 448 kb/s
Channel(s)                               : 6 channels
Channel layout                           : L R C LFE Ls Rs
Sampling rate                            : 48.0 kHz
Frame rate                               : 31.250 FPS (1536 SPF)
Bit depth                                : 16 bits
Compression mode                         : Lossy
Stream size                              : 196 MiB (28%)
Alignment                                : Aligned on interleaves
Interleave, duration                     : 96  ms (2.40 video frames)
Interleave, preload duration             : 96  ms
Service kind                             : Complete Main[

Part 2

General
Complete name                            : exvid-general-cd2.avi
Format                                   : AVI
Format/Info                              : Audio Video Interleave
File size                                : 698 MiB
Duration                                 : 57 min 33 s
Overall bit rate                         : 1 696 kb/s
Writing application                      : Nandub v1.0rc2
Writing library                          : Nandub build 1852/release

Video
ID                                       : 0
Format                                   : MPEG-4 Visual
Format profile                           : Advanced [email protected]
Format settings                          : BVOP1
Format settings, BVOP                    : 1
Format settings, QPel                    : No
Format settings, GMC                     : No warppoints
Format settings, Matrix                  : Default (H.263)
Codec ID                                 : XVID
Codec ID/Hint                            : XviD
Duration                                 : 57 min 33 s
Bit rate                                 : 1 241 kb/s
Width                                    : 640 pixels
Height                                   : 272 pixels
Display aspect ratio                     : 2.35:1
Frame rate                               : 25.000 FPS
Color space                              : YUV
Chroma subsampling                       : 4:2:0
Bit depth                                : 8 bits
Scan type                                : Progressive
Compression mode                         : Lossy
Bits/(Pixel*Frame)                       : 0.285
Stream size                              : 511 MiB (73%)
Writing library                          : XviD 64

Audio
ID                                       : 1
Format                                   : AC-3
Format/Info                              : Audio Coding 3
Commercial name                          : Dolby Digital
Codec ID                                 : 2000
Duration                                 : 57 min 32 s
Bit rate mode                            : Constant
Bit rate                                 : 448 kb/s
Channel(s)                               : 6 channels
Channel layout                           : L R C LFE Ls Rs
Sampling rate                            : 48.0 kHz
Frame rate                               : 31.250 FPS (1536 SPF)
Bit depth                                : 16 bits
Compression mode                         : Lossy
Stream size                              : 184 MiB (26%)
Alignment                                : Aligned on interleaves
Interleave, duration                     : 96  ms (2.40 video frames)
Interleave, preload duration             : 96  ms
Service kind                             : Complete Main



Contain english subs in separated folder.

Screenshots:








Files:

The General 1998 Theatrical Version DVDRip XviD-EXViD Subs
  • exvid-general-cd1.English.srt (52.6 KB)
  • exvid-general-cd2.English.srt (48.4 KB)
  • exvid-general-cd1.avi (694.7 MB)
  • exvid-general-cd2.avi (698.3 MB)

There are currently no comments. Feel free to leave one :)

Code:

  • UDP://TRACKER.LEECHERS-PARADISE.ORG:6969/ANNOUNCE