Nuvole-Clouds (2020) ITA-ENG Ac3 5.1 WebRip 1080p H264 [ArMor]

  • Category Movies
  • Type HD
  • Language English
  • Total size 3.5 GB
  • Uploaded By ArMor
  • Downloads 74
  • Last checked 2 days ago
  • Date uploaded 1 week ago
  • Seeders 8
  • Leechers 4

Infohash : 7FCB59BAE60AEB3D111FCD52E43FBCCB23E9A011








Directed by Justin Baldoni
Produced by Justin Baldoni, Andrew Lazar, Casey La Scala
Starring Fin Argus, Sabrina Carpenter, Madison Iseman, Alex Campbell, Tom Everett Scott, Lil Rel Howery
Production companies Warner Bros. Pictures, Mad Chance Productions, La Scala Films, Wayfarer Studios
Distributed by Disney+
Release date October 16, 2020
Running time 121 minutes
Country United States



Il giovane musicista Zach Sobiech scopre che il suo cancro si è diffuso, lasciandogli solo pochi mesi di vita. Con un tempo limitato, segue il suo sogno e realizza un album, ignaro che presto sarà un fenomeno musicale virale.

Young musician Zach Sobiech discovers his cancer has spread, leaving him just a few months to live. With limited time, he follows his dream and makes an album, unaware that it will soon be a viral music phenomenon.












General
Unique ID : 177333426529549859538049983428739146629 (0x85692CF60C7861A69062657FDAAF2385)
Complete name : Nuvole-Clouds (2020) ITA-ENG Ac3 5.1 WebRip 1080p H264 [ArMor].mkv
Format : Matroska
Format version : Version 4
File size : 3.46 GiB
Duration : 2 h 0 min
Overall bit rate : 4 099 kb/s
Encoded date : UTC 2020-10-17 05:55:45
Writing application : mkvmerge v15.0.0 ('Duel with the Devil') 64-bit
Writing library : libebml v1.3.5 + libmatroska v1.4.5 / Lavf58.29.100

Video
ID : 1
Format : AVC
Format/Info : Advanced Video Codec
Format profile : [email protected]
Format settings : CABAC / 4 Ref Frames
Format settings, CABAC : Yes
Format settings, Reference frames : 4 frames
Codec ID : V_MPEG4/ISO/AVC
Duration : 2 h 0 min
Bit rate : 3 201 kb/s
Width : 1 920 pixels
Height : 804 pixels
Display aspect ratio : 2.40:1
Frame rate mode : Constant
Frame rate : 23.976 (23976/1000) FPS
Color space : YUV
Chroma subsampling : 4:2:0
Bit depth : 8 bits
Scan type : Progressive
Bits/(Pixel*Frame) : 0.086
Stream size : 2.71 GiB (78%)
Writing library : x264 core 157 r2935 545de2f
Encoding settings : cabac=1 / ref=2 / deblock=1:0:0 / analyse=0x1:0x111 / me=hex / subme=6 / psy=1 / psy_rd=1.00:0.00 / mixed_ref=1 / me_range=16 / chroma_me=1 / trellis=1 / 8x8dct=0 / cqm=0 / deadzone=21,11 / fast_pskip=1 / chroma_qp_offset=-2 / threads=18 / lookahead_threads=3 / sliced_threads=0 / nr=0 / decimate=1 / interlaced=0 / bluray_compat=0 / constrained_intra=0 / bframes=3 / b_pyramid=2 / b_adapt=1 / b_bias=0 / direct=1 / weightb=1 / open_gop=0 / weightp=1 / keyint=240 / keyint_min=24 / scenecut=40 / intra_refresh=0 / rc_lookahead=30 / rc=crf / mbtree=1 / crf=21.0 / qcomp=0.60 / qpmin=0 / qpmax=69 / qpstep=4 / vbv_maxrate=20000 / vbv_bufsize=25000 / crf_max=0.0 / nal_hrd=none / filler=0 / ip_ratio=1.40 / aq=1:1.00
Default : Yes
Forced : No
Color range : Limited
Color primaries : BT.709
Transfer characteristics : BT.709
Matrix coefficients : BT.709

Audio #1
ID : 2
Format : AC-3
Format/Info : Audio Coding 3
Commercial name : Dolby Digital
Codec ID : A_AC3
Duration : 2 h 0 min
Bit rate mode : Constant
Bit rate : 448 kb/s
Channel(s) : 6 channels
Channel layout : L R C LFE Ls Rs
Sampling rate : 48.0 kHz
Frame rate : 31.250 FPS (1536 SPF)
Compression mode : Lossy
Stream size : 388 MiB (11%)
Title : WEBDL EAC3
Language : Italian
Service kind : Complete Main
Default : Yes
Forced : No

Audio #2
ID : 3
Format : AC-3
Format/Info : Audio Coding 3
Commercial name : Dolby Digital
Codec ID : A_AC3
Duration : 2 h 0 min
Bit rate mode : Constant
Bit rate : 448 kb/s
Channel(s) : 6 channels
Channel layout : L R C LFE Ls Rs
Sampling rate : 48.0 kHz
Frame rate : 31.250 FPS (1536 SPF)
Compression mode : Lossy
Stream size : 388 MiB (11%)
Title : EAC3
Language : English
Service kind : Complete Main
Default : No
Forced : No


Files:

Nuvole-Clouds (2020) ITA-ENG Ac3 5.1 WebRip 1080p H264 [ArMor]
  • Nuvole-Clouds (2020) ITA-ENG Ac3 5.1 WebRip 1080p H264 [ArMor].mkv (3.5 GB)
  • Nuvole.2020.ITA-ENG.WEBDL.1080p_ita.srt (99.8 KB)
  • Nuvole.2020.ITA-ENG.WEBDL.1080p_ita_forced.srt (16.1 KB)
  • rytjssw65435w6yet.jpg (118.0 KB)

There are currently no comments. Feel free to leave one :)

Code:

  • udp://tracker.coppersurfer.tk:6969/announce
  • udp://tracker.opentrackr.org:1337/announce
  • udp://tracker.leechers-paradise.org:6969/announce
  • udp://tracker.zer0day.to:1337/announce
  • udp://eddie4.nl:6969/announce
  • udp://9.rarbg.me:2790/announce
  • udp://9.rarbg.to:2730/announce
  • udp://9.rarbg.com:2710/announce
  • udp://tracker.pirateparty.gr:6969/announce
  • udp://p4p.arenabg.com:1337/announce
  • http://ipv4.tracker.harry.lu/announce
  • http://ipv4.tracker.harry.lu:80/announce
  • http://t.nyaatracker.com/announce
  • http://t.nyaatracker.com:80/announce
  • http://tracker.torrentyorg.pl:80/announce