Clouds (2020) 1080p 5.1 - 2.0 x264 Phun Psyz

  • Category Movies
  • Type HD
  • Language English
  • Total size 2.1 GB
  • Uploaded By PhunPsyz
  • Downloads 380
  • Last checked 1 hour ago
  • Date uploaded 4 days ago
  • Seeders 20
  • Leechers 7

Clouds

MusicDramaRomance

Young musician Zach Sobiech discovers his cancer has spread, leaving him just a few months to live. With limited time, he follows his dream and makes an album, unaware that it will soon be a viral music phenomenon.

Infohash : 1F151C89CBF7D69A047690DE3C53C2686CC8D5AE

www.imdb.com/title/tt6473066/

Young musician Zach Sobiech discovers his cancer has spread, leaving him just a few months to live. With limited time, he follows his dream and makes an album, unaware that it will soon be a viral music phenomenon.

Source: PHOENIX (DSNP)



Format : MPEG-4
Format profile : Base Media / Version 2
Codec ID : mp42 (isom/iso2/avc1/mp41)
File size : 2.12 GiB
Duration : 2 h 0 min
Overall bit rate mode : Variable
Overall bit rate : 2 509 kb/s
Writing application : HandBrake 1.3.3 2020061300

Video
ID : 1
Format : AVC
Format/Info : Advanced Video Codec
Format profile : [email protected]
Format settings : CABAC / 1 Ref Frames
Format settings, CABAC : Yes
Format settings, Reference : 1 frame
Codec ID : avc1
Codec ID/Info : Advanced Video Coding
Duration : 2 h 0 min
Bit rate : 2 018 kb/s
Width : 1 920 pixels
Height : 800 pixels
Display aspect ratio : 2.40:1
Frame rate mode : Variable
Frame rate : 23.976 (24000/1001) FPS
Minimum frame rate : 23.974 FPS
Maximum frame rate : 23.981 FPS
Color space : YUV
Chroma subsampling : 4:2:0
Bit depth : 8 bits
Scan type : Progressive
Bits/(Pixel*Frame) : 0.055
Stream size : 1.71 GiB (80%)
Writing library : x264 core 157 r2935 545de2f
Color primaries : BT.709
Transfer characteristics : BT.709
Matrix coefficients : BT.709

Audio #1
ID : 2
Format : AC-3
Format/Info : Audio Coding 3
Commercial name : Dolby Digital
Codec ID : ac-3
Duration : 2 h 0 min
Bit rate mode : Constant
Bit rate : 320 kb/s
Channel(s) : 6 channels
Channel layout : L R C LFE Ls Rs
Sampling rate : 48.0 kHz
Frame rate : 31.250 FPS (1536 SPF)
Compression mode : Lossy
Stream size : 277 MiB (13%)
Language : English
Service kind : Complete Main
Default : Yes

Audio #2
ID : 3
Format : AAC LC
Format/Info : Advanced Audio Codec Low Complexity
Codec ID : mp4a-40-2
Duration : 2 h 0 min
Bit rate mode : Constant
Bit rate : 161 kb/s
Channel(s) : 2 channels
Channel layout : L R
Sampling rate : 48.0 kHz
Frame rate : 46.875 FPS (1024 SPF)
Compression mode : Lossy
Stream size : 139 MiB (6%)
Language : English

Text
Language : English
Default : Yes
Forced : No
Language : Danish
Language : German
Language : German
Language : Spanish
Language : Spanish
Language : Spanish
Language : Finnish
Language : French
Language : French
Language : Italian
Language : Italian
Language : Dutch
Language : Dutch
Language : Norwegian
Language : Polish
Language : Portuguese
Language : Portuguese
Language : Portuguese
Language : Swedish
Default : No
Forced : No

Files:

  • Clouds (2020) 1080p 5.1 - 2.0 x264 Phun Psyz.mp4 (2.1 GB)

There are currently no comments. Feel free to leave one :)

Code:

  • udp://tracker.tiny-vps.com:6969/announce
  • udp://open.stealth.si:80/announce
  • udp://p4p.arenabg.com:1337/announce
  • udp://tracker.coppersurfer.tk:6969/announce
  • udp://tracker.uw0.xyz:6969/announce
  • udp://tracker.torrent.eu.org:451/announce
  • udp://explodie.org:6969/announce
  • udp://ipv4.tracker.harry.lu:80/announce
  • udp://retracker.lanta-net.ru:2710/announce
  • udp://exodus.desync.com:6969/announce
  • udp://tracker.iamhansen.xyz:2000/announce
  • udp://opentor.org:2710/announce
  • udp://tracker.moeking.me:6969/announce