Psycho (1960) Uncut 60th Anniv. 1080p 10bit Bluray x265 HEVC [Org...

  • Category Movies
  • Type Dubs/Dual Audio
  • Language Hindi
  • Total size 4.2 GB
  • Uploaded By McuDudeS
  • Downloads 289
  • Last checked 55 minutes ago
  • Date uploaded 6 days ago
  • Seeders 10
  • Leechers 4

Psycho

DramaHorrorThriller

When larcenous real estate clerk Marion Crane goes on the lam with a wad of cash and hopes of starting a new life, she ends up at the notorious Bates Motel, where manager Norman Bates cares for his housebound mother. The place seems quirky, but fine… until Marion decides to take a shower.

Infohash : E44A493C29A0DC390D2ADF8C6EB0B2C402DAFB05



An Alfred Hitchcock Masterpiece...




Psycho (1960) Uncut 60th Anniv. 1080p 10bit Bluray x265 HEVC [Org UHD BD DTS 5.1 Hindi + DD 5.1 English] MSubs ~ TombDoc


Code:

Format                                   : Matroska
Format version                           : Version 4
File size                                : 4.17 GiB
Duration                                 : 1 h 49 min
Overall bit rate                         : 5 472 kb/s

Video
ID                                       : 1
Format                                   : HEVC
Format/Info                              : High Efficiency Video Coding
Format profile                           : Main [email protected]@Main
Codec ID                                 : V_MPEGH/ISO/HEVC
Duration                                 : 1 h 49 min
Bit rate                                 : 4 004 kb/s
Width                                    : 1 920 pixels
Height                                   : 1 040 pixels
Display aspect ratio                     : 1.85:1
Frame rate mode                          : Constant
Frame rate                               : 23.976 (24000/1001) FPS
Color space                              : YUV
Chroma subsampling                       : 4:2:0
Bit depth                                : 10 bits
Bits/(Pixel*Frame)                       : 0.084
Stream size                              : 3.05 GiB (73%)
Writing library                          : x265 3.4+6-g73f96ff39:[Windows][GCC 11.0.0][64 bit] 10bit
Encoding settings                        : cpuid=1111039 / frame-threads=4 / numa-pools=24 / wpp / no-pmode / no-pme / no-psnr / no-ssim / log-level=2 / input-csp=1 / input-res=1920x1040 / interlace=0 / total-frames=156912 / level-idc=0 / high-tier=1 / uhd-bd=0 / ref=5 / no-allow-non-conformance / no-repeat-headers / annexb / no-aud / no-hrd / info / hash=0 / no-temporal-layers / open-gop / min-keyint=23 / keyint=250 / gop-lookahead=0 / bframes=8 / b-adapt=2 / b-pyramid / bframe-bias=0 / rc-lookahead=100 / lookahead-slices=4 / scenecut=40 / hist-scenecut=0 / radl=0 / no-splice / no-intra-refresh / ctu=64 / min-cu-size=8 / rect / amp / max-tu-size=32 / tu-inter-depth=2 / tu-intra-depth=2 / limit-tu=1 / rdoq-level=2 / dynamic-rd=0.00 / ssim-rd / signhide / no-tskip / nr-intra=0 / nr-inter=0 / no-constrained-intra / strong-intra-smoothing / max-merge=5 / limit-refs=3 / limit-modes / me=3 / subme=6 / merange=57 / temporal-mvp / no-frame-dup / no-hme / weightp / no-weightb / no-analyze-src-pics / deblock=0:0 / sao / no-sao-non-deblock / rd=4 / selective-sao=4 / no-early-skip / no-rskip / no-fast-intra / no-tskip-fast / no-cu-lossless / no-b-intra / no-splitrd-skip / rdpenalty=0 / psy-rd=0.00 / psy-rdoq=2.00 / no-rd-refine / no-lossless / cbqpoffs=0 / crqpoffs=0 / rc=abr / bitrate=4000 / qcomp=0.60 / qpstep=4 / stats-write=0 / stats-read=2 / cplxblur=20.0 / qblur=0.5 / ipratio=1.40 / pbratio=1.30 / aq-mode=4 / aq-strength=1.00 / cutree / zone-count=0 / no-strict-cbr / qg-size=32 / rc-grain / qpmax=69 / qpmin=0 / no-const-vbv / sar=0 / overscan=0 / videoformat=5 / range=0 / colorprim=2 / transfer=2 / colormatrix=2 / chromaloc=0 / display-window=0 / cll=0,0 / min-luma=0 / max-luma=1023 / log2-max-poc-lsb=8 / vui-timing-info / vui-hrd-info / slices=1 / no-opt-qp-pps / no-opt-ref-list-length-pps / no-multi-pass-opt-rps / scenecut-bias=0.05 / hist-threshold=0.01 / no-opt-cu-delta-qp / aq-motion / no-hdr10 / no-hdr10-opt / no-dhdr10-opt / no-idr-recovery-sei / analysis-reuse-level=0 / analysis-save-reuse-level=0 / analysis-load-reuse-level=0 / scale-factor=0 / refine-intra=0 / refine-inter=0 / refine-mv=1 / refine-ctu-distortion=0 / no-limit-sao / ctu-info=0 / no-lowpass-dct / refine-analysis-type=0 / copy-pic=1 / max-ausize-factor=1.0 / no-dynamic-refine / no-single-sei / hevc-aq / no-svt / no-field / qp-adaptation-range=1.00 / no-scenecut-aware-qpconformance-window-offsets / right=0 / bottom=0 / decoder-max-rate=0
Default                                  : Yes
Forced                                   : No

Audio #1
ID                                       : 2
Format                                   : DTS
Format/Info                              : Digital Theater Systems
Codec ID                                 : A_DTS
Duration                                 : 1 h 49 min
Bit rate mode                            : Constant
Bit rate                                 : 768 kb/s
Channel(s)                               : 6 channels
Channel layout                           : C L R Ls Rs LFE
Sampling rate                            : 48.0 kHz
Frame rate                               : 93.750 FPS (512 SPF)
Bit depth                                : 24 bits
Compression mode                         : Lossy
Stream size                              : 599 MiB (14%)
Title                                    : Org UHD BD DTS 5.1 768Kbps ~ TombDoc
Language                                 : Hindi
Default                                  : Yes
Forced                                   : Yes

Audio #2
ID                                       : 3
Format                                   : E-AC-3
Format/Info                              : Enhanced AC-3
Commercial name                          : Dolby Digital Plus
Codec ID                                 : A_EAC3
Duration                                 : 1 h 49 min
Bit rate mode                            : Constant
Bit rate                                 : 640 kb/s
Channel(s)                               : 6 channels
Channel layout                           : L R C LFE Ls Rs
Sampling rate                            : 48.0 kHz
Frame rate                               : 31.250 FPS (1536 SPF)
Compression mode                         : Lossy
Stream size                              : 499 MiB (12%)
Title                                    : DD+ 5.1 English
Language                                 : English
Service kind                             : Complete Main
Default                                  : No
Forced                                   : No

Text #1
ID                                       : 4
Format                                   : PGS
Muxing mode                              : zlib
Codec ID                                 : S_HDMV/PGS
Codec ID/Info                            : Picture based subtitle format used on BDs/HD-DVDs
Duration                                 : 1 h 46 min
Bit rate                                 : 147 b/s
Count of elements                        : 34
Stream size                              : 115 KiB (0%)
Title                                    : Hindi BD-PGS {Forced}
Language                                 : Hindi
Default                                  : Yes
Forced                                   : Yes

Text #2
ID                                       : 5
Format                                   : PGS
Muxing mode                              : zlib
Codec ID                                 : S_HDMV/PGS
Codec ID/Info                            : Picture based subtitle format used on BDs/HD-DVDs
Duration                                 : 1 h 46 min
Bit rate                                 : 26.9 kb/s
Count of elements                        : 2098
Stream size                              : 20.5 MiB (0%)
Title                                    : Hindi BD-PGS
Language                                 : Hindi
Default                                  : No
Forced                                   : No

Text #3
ID                                       : 6
Format                                   : PGS
Muxing mode                              : zlib
Codec ID                                 : S_HDMV/PGS
Codec ID/Info                            : Picture based subtitle format used on BDs/HD-DVDs
Duration                                 : 1 h 45 min
Bit rate                                 : 37.6 kb/s
Count of elements                        : 2430
Stream size                              : 28.4 MiB (1%)
Title                                    : Eng BD-PGS-SDH
Language                                 : English
Default                                  : No
Forced                                   : No

Text #4
ID                                       : 7
Format                                   : PGS
Muxing mode                              : zlib
Codec ID                                 : S_HDMV/PGS
Codec ID/Info                            : Picture based subtitle format used on BDs/HD-DVDs
Duration                                 : 1 h 48 min
Bit rate                                 : 64.5 kb/s
Count of elements                        : 3043
Stream size                              : 50.2 MiB (1%)
Title                                    : Commentary
Language                                 : English
Default                                  : No
Forced                                   : No

Text #5
ID                                       : 8
Format                                   : PGS
Muxing mode                              : zlib
Codec ID                                 : S_HDMV/PGS
Codec ID/Info                            : Picture based subtitle format used on BDs/HD-DVDs
Duration                                 : 1 h 48 min
Bit rate                                 : 66.0 kb/s
Count of elements                        : 3198
Stream size                              : 51.4 MiB (1%)
Title                                    : Commentary 2
Language                                 : English
Default                                  : No
Forced                                   : No

Menu
00:00:00.000                             : en:Chapter 01
00:02:20.682                             : en:Chapter 02
00:07:00.086                             : en:Chapter 03
00:11:06.624                             : en:Chapter 04
00:14:00.631                             : en:Chapter 05
00:17:54.198                             : en:Chapter 06
00:26:33.050                             : en:Chapter 07
00:34:51.006                             : en:Chapter 08
00:38:35.271                             : en:Chapter 09
00:46:43.592                             : en:Chapter 10
00:49:37.183                             : en:Chapter 11
00:58:51.862                             : en:Chapter 12
01:00:26.206                             : en:Chapter 13
01:04:11.055                             : en:Chapter 14
01:06:41.623                             : en:Chapter 15
01:12:35.476                             : en:Chapter 16
01:16:41.972                             : en:Chapter 17
01:17:52.835                             : en:Chapter 18
01:20:29.783                             : en:Chapter 19
01:23:48.315                             : en:Chapter 20
01:27:05.720                             : en:Chapter 21
01:32:19.242                             : en:Chapter 22
01:35:21.883                             : en:Chapter 23
01:41:03.516                             : en:Chapter 24
01:42:08.956                             : en:Chapter 25
01:47:29.526                             : en:Chapter 26



Code:

Source: Psycho.1960.MULTi.COMPLETE.BLURAY.iNTERNAL-OLDHAM {60th Anniversary Edition}
-Psycho.1960.MULTi.COMPLETE.UHD.CEE.BLURAY-EXTREME
Note: The extended version of the Movie as seen in theaters in 1960 is exactly as intended
by Alfred Hitchcock and now with Additional footage for the first time Ever..
EnjoYy the Quality...




Files:

Psycho (1960) Uncut 60th Anniversary Edition ~ TombDoc
  • Psycho (1960) Uncut 60th Anniv. 1080p 10bit Bluray x265 HEVC [Org UHD BD DTS 5.1 Hindi + DD 5.1 English] MSubs ~ TombDoc.mkv (4.2 GB)
  • Psycho.Uncut-60.A.E.jpg (101.7 KB)

Comments

Code:

  • udp://tracker.opentrackr.org:1337/announce
  • udp://tracker.coppersurfer.tk:6969/announce
  • udp://9.rarbg.to:2710/announce
  • udp://9.rarbg.me:2710/announce
  • udp://tracker.leechers-paradise.org:6969/announce
  • udp://tracker.internetwarriors.net:1337/announce
  • udp://tracker.cyberia.is:6969/announce
  • udp://exodus.desync.com:6969/announce
  • udp://explodie.org:6969/announce
  • udp://tracker3.itzmx.com:6961/announce
  • http://tracker1.itzmx.com:8080/announce
  • udp://tracker.tiny-vps.com:6969/announce
  • udp://open.stealth.si:80/announce
  • udp://tracker.ds.is:6969/announce
  • udp://tracker.torrent.eu.org:451/announce
  • udp://retracker.lanta-net.ru:2710/announce
  • http://open.acgnxtracker.com:80/announce
  • http://tracker4.itzmx.com:2710/announce
  • udp://tracker.moeking.me:6969/announce
  • udp://ipv4.tracker.harry.lu:80/announce