White Wall - S01 E04 - 1080p x264 (ENG SUBS) [BRSHNKV]

  • Category TV
  • Type HD
  • Language Swedish
  • Total size 929.5 MB
  • Uploaded By Baryshnikov
  • Downloads 459
  • Last checked 2 hours ago
  • Date uploaded 6 days ago
  • Seeders 25
  • Leechers 4

Infohash : 8B2DF30127AB0F86446B38758E7D5BE42C9EECF4






Tech:

Format : MPEG-4
Format profile : Base Media / Version 2
Codec ID : mp42
File size : 929 MiB
Duration : 43mn 43s
Overall bit rate mode : Variable
Overall bit rate : 2 971 Kbps
Movie name : White Wall S01 E04 - 1080p x264 [BRSHNKV]
Encoded date : UTC 2020-10-16 21:17:53
Tagged date : UTC 2020-10-16 21:17:53
Writing application : HandBrake 1.1.1 2018061800

Video
ID : 1
Format : AVC
Format/Info : Advanced Video Codec
Format profile : [email protected]
Format settings, CABAC : Yes
Format settings, ReFrames : 4 frames
Codec ID : avc1
Codec ID/Info : Advanced Video Coding
Duration : 43mn 43s
Bit rate : 2 800 Kbps
Width : 1 920 pixels
Height : 960 pixels
Display aspect ratio : 2.000
Frame rate mode : Constant
Frame rate : 25.000 fps
Color space : YUV
Chroma subsampling : 4:2:0
Bit depth : 8 bits
Scan type : Progressive
Bits/(Pixel*Frame) : 0.061
Stream size : 876 MiB (94%)
Writing library : x264 core 155 r2901 7d0ff22
Encoded date : UTC 2020-10-16 21:17:53
Tagged date : UTC 2020-10-16 21:17:53
Color range : Limited
Color primaries : BT.709
Transfer characteristics : BT.709
Matrix coefficients : BT.709

Audio
ID : 2
Format : AAC
Format/Info : Advanced Audio Codec
Format profile : LC
Codec ID : 40
Duration : 43mn 43s
Bit rate mode : Variable
Bit rate : 165 Kbps
Channel(s) : 2 channels
Channel positions : Front: L R
Sampling rate : 48.0 KHz
Compression mode : Lossy
Stream size : 51.6 MiB (6%)
Title : Stereo / Stereo
Language : Swedish
Encoded date : UTC 2020-10-16 21:17:53
Tagged date : UTC 2020-10-16 21:17:53

Files:

White Wall - S01 E04 - 1080p x264 (ENG SUBS) [BRSHNKV]
  • [TGx]Downloaded from torrentgalaxy.to .txt (0.6 KB)
  • On 1337x.txt (0.0 KB)
  • On TPB.txt (0.0 KB)
  • Torrent_downloaded_from_Demonoid.is_.txt (0.1 KB)
  • White Wall S01 E04 .ass (31.2 KB)
  • White Wall S01 E04 .mp4 (929.5 MB)
  • White Wall S01 E04 .srt (25.2 KB)

Comments

Code:

  • udp://tracker.opentrackr.org:1337/announce
  • udp://tracker.leechers-paradise.org:6969/announce
  • udp://p4p.arenabg.com:1337/announce
  • udp://9.rarbg.to:2710/announce
  • udp://9.rarbg.me:2710/announce
  • udp://exodus.desync.com:6969/announce
  • udp://open.stealth.si:80/announce
  • udp://tracker.sbsub.com:2710/announce
  • udp://tracker.cyberia.is:6969/announce
  • udp://retracker.lanta-net.ru:2710/announce
  • udp://tracker.tiny-vps.com:6969/announce
  • udp://tracker.torrent.eu.org:451/announce
  • udp://tracker.moeking.me:6969/announce
  • http://tracker1.itzmx.com:8080/announce